Эдвард руки-ножницы / Edward Scissorhands (Тим Бёртон /Tim Burton) [1990, США, фэнтези, мелодрама, драма, BDRip 1080p] 2MVO + 2DVO + AVO + Original + Subs (Rus, Eng)

Reply to topic
 
Author
Message

LORN-V ®

Gender: Male

Longevity: 7 years 2 months

Posts: 904

Reputation: 5 [+] [-]

Location: Munchen

LORN-V · Post 23-Apr-2013 18:04

[Quote] 

Эдвард Руки-ножницы / Edward Scissorhands«The story of an uncommonly gentle man»
-Основная информация:-Год выпуска: 1990
Страна: США
Жанр: фэнтези, мелодрама, драма
Продолжительность: 01:44:59
Перевод №1: Профессиональный (многоголосый закадровый, ОРТ (Blu-ray CEE))
Перевод №2: Профессиональный (многоголосый закадровый, Киномания)
Перевод №3: Профессиональный (двухголосый закадровый, Премьер Видео Фильм)
Перевод №4: Профессиональный (двухголосый закадровый, Tycoon)
Перевод №5: Авторский (одноголосый закадровый, А.Гаврилов)
Оригинальная аудиодорожка: английский
Субтитры: Русские, Английские
Режиссер: Тим Бёртон / Tim Burton
Сценарий: Тим Бёртон / Tim Burton, Кэролин Томпсон / Caroline Thompson
Продюсер: Тим Бёртон / Tim Burton, Денис Ди Нови / Denise Di Novi, Ричард Хашимото / Richard Hashimoto, Кэролин Томпсон / Caroline Thompson
Оператор: Стефан Чапски / Stefan Czapsky
Композитор: Дэнни Элфман / Danny Elfman-В ролях: Джонни Депп / Johnny Depp (Edward Scissorhands)
, Вайнона Райдер / Winona Ryder (Kim), Дайэнн Уист / Dianne Wiest (Peg), Энтони Майкл Холл / Anthony Michael Hall (Jim), Кэти Бейкер / Kathy Baker (Joyce), Роберт Оливери / Robert Oliveri (Kevin), Кончата Феррелл / Conchata Ferrell (Helen), Кэролайн Аарон / Caroline Aaron (Marge), Дик Энтони Уильямс / Dick Anthony Williams (Officer Allen), О-Лан Джонс / O-Lan Jones (Esmeralda), Винсент Прайс / Vincent Price (The Inventor), Алан Аркин / Alan Arkin (Bill)-Описание:-Одинокий старый ученый создал человеческое существо. Но не успел доделать его до конца и умер. У сотворенного им молодого человека не хватает рук — вместо них у него нечто вроде ножниц — и он вынужден жить в заброшенном доме в полном одиночестве. Но вот однажды он знакомится с прекрасной девушкой, которая смогла оценить его доброе сердце…- -Доп. информация:-Качество: Blu-ray Rip 1080p
Формат: MKV
Видео: MPEG-4 AVC (H264), 1920x1040, 23.976 fps, High Profile 4.1, ~21400 kbps avg, bit/(pixel*frame) 0.444
Аудио №1: Russian: 48 kHz, DTS, 3/2 (L,C,R,l,r) + LFE ch, ~768.00 kbps avg многоголосый закадровый (ОРТ)
Аудио №2: Russian: 48 kHz, AC3, 3/2 (L,C,R,l,r) + LFE ch, ~384.00 kbps avg многоголосый закадровый (Киномания)
Аудио №3: Russian: 48 kHz, AC3, 2.0 (L,R) ch, ~192.00 kbps avg двухголосый закадровый (Премьер Видео Фильм)
Аудио №4: Russian: 48 kHz, AC3, 3/2 (L,C,R,l,r) + LFE ch, ~448.00 kbps avg двухголосый закадровый (Tycoon)
Аудио №5: Russian: 48 kHz, DTS, 3/2 (L,C,R,l,r) + LFE ch, ~755.00 kbps avg одноголосый закадровый (А.Гаврилов)
Аудио №6: English: 48 kHz, DTS, 4.0 (L,C,R) + LFE ch, ~1510.00 kbps avg Original
Аудио №7: English: 48 kHz, AC3, 2.0 (L,R) ch, ~224.00 kbps avg Commentary by Director Tim Burton
Аудио №8: English: 48 kHz, AC3, 2.0 (L,R) ch, ~224.00 kbps avg Commentary by Composer Danny Elfman
Субтитры : Russian, English (Softsub SRT)
Навигация по главам: есть

MediaInfo

L:\Edward Scissorhands [Эдвард руки-ножницы] (1990) 1920x1040 BDRip RusEngSubsChpt.mkv
General
Unique ID : 252339496306705663452752034502963275076 (0xBDD6D1B7AC1F415C9D481F1C2DE6A544)
Complete name : L:\Edward Scissorhands [Эдвард руки-ножницы] (1990) 1920x1040 BDRip RusEngSubsChpt.mkv
Format : Matroska
Format version : Version 4 / Version 2
File size : 19.3 GiB
Duration : 1h 45mn
Overall bit rate : 26.3 Mbps
Encoded date : UTC 2010-02-22 21:41:31
Writing application : mkvmerge v5.9.0 ('On The Loose') built on Dec 9 2012 15:37:01
Writing library : libebml v1.3.0 + libmatroska v1.4.0
Video #1
ID : 1
Format : AVC
Format/Info : Advanced Video Codec
Format profile : High@L4.1
Format settings, CABAC : Yes
Format settings, ReFrames : 4 frames
Codec ID : V_MPEG4/ISO/AVC
Duration : 1h 45mn
Bit rate : 21.3 Mbps
Width : 1 920 pixels
Height : 1 040 pixels
Display aspect ratio : 1.85:1
Frame rate mode : Constant
Frame rate : 23.976 fps
Color space : YUV
Chroma subsampling : 4:2:0
Bit depth : 8 bits
Scan type : Progressive
Bits/(Pixel*Frame) : 0.444
Stream size : 15.6 GiB (81%)
Writing library : x264 core 129 r2230+696+36 4446aa2 tMod+MixAQ [8-bit@all X86_64]
Encoding settings : cabac=1 / ref=4 / deblock=1:-3:-3 / analyse=0x3:0x133 / me=umh / subme=11 / psy=1 / fade_compensate=0.00 / psy_rd=1.40:0.10 / mixed_ref=1 / me_range=32 / chroma_me=1 / trellis=2 / 8x8dct=1 / cqm=0 / deadzone=21,11 / fast_pskip=0 / chroma_qp_offset=-3 / threads=12 / lookahead_threads=2 / sliced_threads=0 / nr=0 / decimate=1 / interlaced=0 / bluray_compat=0 / constrained_intra=0 / fgo=0 / bframes=15 / b_pyramid=2 / b_adapt=2 / b_bias=0 / direct=3 / weightb=1 / open_gop=0 / weightp=2 / keyint=250 / keyint_min=23 / scenecut=40 / intra_refresh=0 / rc=crf / mbtree=0 / crf=18.2000 / qcomp=0.70 / qpmin=0 / qpmax=69 / qpstep=4 / ip_ratio=1.25 / pb_ratio=1.15 / aq=1 / aq-strength=0.50 / aq-sensitivity=10.00 / aq-ifactor=1.00 / aq-pfactor=1.00 / aq-bfactor=1.00 / aq2=0
Language : English
Default : Yes
Forced : No
Color primaries : BT.709
Transfer characteristics : BT.709
Matrix coefficients : BT.709
Audio #2
ID : 2
Format : DTS
Format/Info : Digital Theater Systems
Mode : 16
Format settings, Endianness : Big
Codec ID : A_DTS
Duration : 1h 45mn
Bit rate mode : Constant
Bit rate : 768 Kbps
Channel(s) : 6 channels
Channel positions : Front: L C R, Side: L R, LFE
Sampling rate : 48.0 KHz
Bit depth : 24 bits
Compression mode : Lossy
Stream size : 577 MiB (3%)
Title : MVO DTS 6ch 755kbps (ОРТ)
Language : Russian
Default : Yes
Forced : No
Audio #3
ID : 3
Format : AC-3
Format/Info : Audio Coding 3
Mode extension : CM (complete main)
Format settings, Endianness : Big
Codec ID : A_AC3
Duration : 1h 45mn
Bit rate mode : Constant
Bit rate : 384 Kbps
Channel(s) : 6 channels
Channel positions : Front: L C R, Side: L R, LFE
Sampling rate : 48.0 KHz
Bit depth : 16 bits
Compression mode : Lossy
Stream size : 289 MiB (1%)
Title : MVO AC3 6ch 384kbps (Киномания)
Language : Russian
Default : No
Forced : No
Audio #4
ID : 4
Format : AC-3
Format/Info : Audio Coding 3
Mode extension : CM (complete main)
Format settings, Endianness : Big
Codec ID : A_AC3
Duration : 1h 45mn
Bit rate mode : Constant
Bit rate : 192 Kbps
Channel(s) : 2 channels
Channel positions : Front: L R
Sampling rate : 48.0 KHz
Bit depth : 16 bits
Compression mode : Lossy
Stream size : 144 MiB (1%)
Title : DVO AC3 2ch 192kbps (Премьер Видео Фильм)
Language : Russian
Default : No
Forced : No
Audio #5
ID : 5
Format : AC-3
Format/Info : Audio Coding 3
Mode extension : CM (complete main)
Format settings, Endianness : Big
Codec ID : A_AC3
Duration : 1h 45mn
Bit rate mode : Constant
Bit rate : 448 Kbps
Channel(s) : 6 channels
Channel positions : Front: L C R, Side: L R, LFE
Sampling rate : 48.0 KHz
Bit depth : 16 bits
Compression mode : Lossy
Stream size : 337 MiB (2%)
Title : DVO AC3 6ch 448kbps (Tycoon)
Language : Russian
Default : No
Forced : No
Audio #6
ID : 6
Format : DTS
Format/Info : Digital Theater Systems
Mode : 16
Format settings, Endianness : Big
Codec ID : A_DTS
Duration : 1h 45mn
Bit rate mode : Constant
Bit rate : 755 Kbps
Channel(s) : 6 channels
Channel positions : Front: L C R, Side: L R, LFE
Sampling rate : 48.0 KHz
Bit depth : 24 bits
Compression mode : Lossy
Stream size : 567 MiB (3%)
Title : AVO DTS 6ch 755kbps (А.Гаврилов)
Language : Russian
Default : No
Forced : No
Audio #7
ID : 7
Format : DTS
Format/Info : Digital Theater Systems
Mode : 16
Format settings, Endianness : Big
Codec ID : A_DTS
Duration : 1h 45mn
Bit rate mode : Constant
Bit rate : 1 509 Kbps
Channel(s) : 4 channels
Channel positions : Front: L C R, Side: C
Sampling rate : 48.0 KHz
Bit depth : 24 bits
Compression mode : Lossy
Stream size : 1.11 GiB (6%)
Title : Original DTS 4ch 1510kbps
Language : English
Default : No
Forced : No
Audio #8
ID : 8
Format : AC-3
Format/Info : Audio Coding 3
Mode extension : CM (complete main)
Format settings, Endianness : Big
Codec ID : A_AC3
Duration : 1h 45mn
Bit rate mode : Constant
Bit rate : 224 Kbps
Channel(s) : 2 channels
Channel positions : Front: L R
Sampling rate : 48.0 KHz
Bit depth : 16 bits
Compression mode : Lossy
Stream size : 168 MiB (1%)
Title : AC3 2ch 224kbps (Commentary by Director Tim Burton)
Language : English
Default : No
Forced : No
Audio #9
ID : 9
Format : AC-3
Format/Info : Audio Coding 3
Mode extension : CM (complete main)
Format settings, Endianness : Big
Codec ID : A_AC3
Duration : 1h 45mn
Bit rate mode : Constant
Bit rate : 224 Kbps
Channel(s) : 2 channels
Channel positions : Front: L R
Sampling rate : 48.0 KHz
Bit depth : 16 bits
Compression mode : Lossy
Stream size : 168 MiB (1%)
Title : AC3 2ch 224kbps (Commentary by Composer Danny Elfman)
Language : English
Default : No
Forced : No
Text #10
ID : 10
Format : UTF-8
Codec ID : S_TEXT/UTF8
Codec ID/Info : UTF-8 Plain Text
Language : Russian
Default : No
Forced : No
Text #11
ID : 11
Format : UTF-8
Codec ID : S_TEXT/UTF8
Codec ID/Info : UTF-8 Plain Text
Language : English
Default : No
Forced : No
Menu
00:00:00.000 : :00:00.000
00:02:45.999 : :00:02:45.999
00:05:19.110 : :00:05:19.110
00:12:25.620 : :00:12:25.620
00:16:36.621 : :00:16:36.621
00:28:32.502 : :00:28:32.502
00:31:27.302 : :00:31:27.302
00:33:29.007 : :00:33:29.007
00:35:29.669 : :00:35:29.669
00:38:15.877 : :00:38:15.877
00:39:48.678 : :00:39:48.678
00:45:04.410 : :00:45:04.410
00:47:38.856 : :00:47:38.856
00:54:38.567 : :00:54:38.567
00:56:57.539 : :00:56:57.539
01:01:18.800 : :01:01:18.800
01:04:40.043 : :01:04:40.043
01:09:22.450 : :01:09:22.450
01:15:51.338 : :01:15:51.338
01:19:05.157 : :01:19:05.157
01:24:57.676 : :01:24:57.676
01:27:06.555 : :01:27:06.555
01:37:04.360 : :01:37:04.360
01:39:46.814 : :01:39:46.814

x264 log

x264 [info]: frame I:852 Avg QP:18.26 size:242000 PSNR Mean Y:47.46 U:51.34 V:52.62 Avg:48.27 Global:47.92
x264 [info]: frame P:26086 Avg QP:19.11 size:143979 PSNR Mean Y:45.28 U:51.13 V:52.65 Avg:46.32 Global:45.90
x264 [info]: frame B:124093 Avg QP:20.24 size:106400 PSNR Mean Y:44.64 U:50.24 V:51.97 Avg:45.69 Global:45.23
x264 [info]: consecutive B-frames: 0.8% 0.7% 2.7% 10.2% 15.8% 37.6% 12.2% 5.0% 5.0% 4.9% 2.3% 1.1% 0.9% 0.6% 0.1% 0.1%
x264 [info]: mb I I16..4: 27.9% 49.2% 22.9%
x264 [info]: mb P I16..4: 5.0% 25.4% 3.3% P16..4: 20.7% 28.7% 9.5% 2.1% 0.1% skip: 5.1%
x264 [info]: mb B I16..4: 12.5% 4.5% 2.4% B16..8: 31.4% 20.5% 4.2% direct:16.0% skip: 8.5% L0:36.0% L1:33.7% BI:30.3%
x264 [info]: 8x8 transform intra:37.3% inter:33.8%
x264 [info]: direct mvs spatial:100.0% temporal:0.0%
x264 [info]: coded y,uvDC,uvAC intra: 98.0% 90.3% 69.8% inter: 70.8% 59.3% 9.7%
x264 [info]: i16 v,h,dc,p: 4% 4% 63% 28%
x264 [info]: i8 v,h,dc,ddl,ddr,vr,hd,vl,hu: 9% 6% 12% 11% 13% 13% 11% 13% 13%
x264 [info]: i4 v,h,dc,ddl,ddr,vr,hd,vl,hu: 16% 11% 29% 6% 7% 8% 7% 7% 8%
x264 [info]: i8c dc,h,v,p: 45% 21% 20% 14%
x264 [info]: Weighted P-Frames: Y:97.8% UV:4.9%
x264 [info]: ref P L0: 44.8% 12.0% 27.1% 14.8% 1.2% 0.0%
x264 [info]: ref B L0: 85.7% 11.7% 2.6%
x264 [info]: ref B L1: 89.8% 10.2%
x264 [info]: SSIM Mean Y:0.9778330 (16.543db)
x264 [info]: PSNR Mean Y:44.763 U:50.403 V:52.094 Avg:45.812 Global:45.351 kb/s:21800.12
x264 [info]: encoded 151031 frames, 3.038 fps, 21800.12 kb/s, 16370 MB
x264 [info]: ended at Tue Jan 01 04:53:00 2013
x264 [info]: encoding duration 13:48:31
-Скриншоты:-

Скриншоты

Blu-Ray vs Rip







[Profile]  [PM] 
Display posts:    
Reply to topic

Current time is: 03-Jun 14:51

All times are UTC + 2



You cannot post new topics in this forum
You cannot reply to topics in this forum
You cannot edit your posts in this forum
You cannot delete your posts in this forum
You cannot vote in polls in this forum
You cannot attach files in this forum
You cannot download files in this forum