[UKR] (Alternative) Бумбокс - The Best Of (3CD) - 2010, FLAC (image+.cue), lossless

Reply to topic
 
Author
Message

mario-OS ®

Gender: Male

Longevity: 14 years

Posts: 575

Reputation: 31 [+] [-]

Location: ...из страны, где шлюха стоит всего лишь доллар, солнце всегда и везде (с)

mario-OS · Post 08-Mar-2010 20:26

[Quote] 

--Бумбокс - The Best Of (3CD)-- Жанр: Alternative
Год выпуска диска: 2010
Производитель диска: Moon Records (Ukraine)
Аудио кодек: FLAC
Тип рипа:image+.cue
Битрейт аудио: lossless
Продолжительность: 02:50:56

1: Бумбокс - Меломанія

Трэклист:
01. Бета-Каротин (3:21)
02. День (4:41)
03. Діагноз (3:33)
04. E-mail (3:34)
05. Гайки з Ямайки (4:16)
06. Почути (4:38)
07. Рожеві сиропи (3:16)
08. Супер-пупер (2:56)
09. Одна (4:32)
10. Бобік (3:22)
11. Зима (4:30)
12. Date with another ten (3:29)
13. Пісня для Кітайського льотчика
-

Отчёт EAC

Exact Audio Copy V0.99 prebeta 5 from 4. May 2009
Отчёт EAC об извлечении, выполненном 8. февраля 2010, 16:42
Бумбокс / Меломанія
Дисковод: PIONEER DVD-RW DVR-111D Adapter: 0 ID: 0
Режим чтения : Достоверность
Использование точного потока : Да
Отключение кэша аудио : Да
Использование указателей C2 : Нет
Коррекция смещения при чтении : 48
Способность читать области Lead-in и Lead-out : Нет
Заполнение пропущенных сэмплов тишиной : Да
Удаление блоков с тишиной в начале и конце : Нет
При вычислениях CRC использовались нулевые сэмплы : Да
Интерфейс : Встроенный Win32-интерфейс для Win NT/2000
Выходной формат : Внутренние WAV-операции
Формат сэмплов : 44.100 Гц; 16 бит; стерео
TOC извлечённого CD
Трек | Старт | Длительность | Начальный сектор | Конечный сектор
---------------------------------------------------------------------
1 | 0:00.00 | 3:21.17 | 0 | 15091
2 | 3:21.17 | 4:40.40 | 15092 | 36131
3 | 8:01.57 | 3:33.31 | 36132 | 52137
4 | 11:35.13 | 3:34.31 | 52138 | 68218
5 | 15:09.44 | 4:16.01 | 68219 | 87419
6 | 19:25.45 | 4:38.05 | 87420 | 108274
7 | 24:03.50 | 3:15.50 | 108275 | 122949
8 | 27:19.25 | 2:56.04 | 122950 | 136153
9 | 30:15.29 | 4:31.72 | 136154 | 156550
10 | 34:47.26 | 3:22.05 | 156551 | 171705
11 | 38:09.31 | 4:29.57 | 171706 | 191937
12 | 42:39.13 | 3:29.33 | 191938 | 207645
13 | 46:08.46 | 3:46.30 | 207646 | 224625
14 | 52:27.01 | 18:18.20 | 236026 | 318395
Характеристики диапазона извлечения и сообщения об ошибках
Выбранный диапазон
Имя файла C:\Documents and Settings\Владелец\Рабочий стол\Бумбокс - The Best Of (3CD) (2010) (Flac)\Бумбокс - Меломанія\Бумбокс - Меломанія.wav
Пиковый уровень 97.7 %
Качество диапазона 100.0 %
CRC теста A07B374F
CRC копии A07B374F
Копирование... OK
Ошибок не произошло
AccurateRip: сводка
Трек 1 нет в базе данных
Трек 2 нет в базе данных
Трек 3 нет в базе данных
Трек 4 нет в базе данных
Трек 5 нет в базе данных
Трек 6 нет в базе данных
Трек 7 нет в базе данных
Трек 8 нет в базе данных
Трек 9 нет в базе данных
Трек 10 нет в базе данных
Трек 11 нет в базе данных
Трек 12 нет в базе данных
Трек 13 нет в базе данных
Ни одного трека нет в базе AccurateRip
Конец отчёта

2: Бумбокс - Family Бiзнес

Трэклист:
01. Ким ми були (3:39)
02. Королева (3:23)
03. Hip-hop (3:49)
04. Вахтёрам (4:01)
05. Зцапала злапала (3:23)
06. Квiти в волоссi (3:59)
07. Вiддаю (3:07)
08. Хоттабыч (4:36)
09. Нездара (4:23)
10. Хвилюватися немає причин (4:42)
11. Happy end (3:19)
-

Отчёт EAC

Exact Audio Copy V0.99 prebeta 5 from 4. May 2009
Отчёт EAC об извлечении, выполненном 8. февраля 2010, 17:00
Бумбокс / Family Бiзнес
Дисковод: PIONEER DVD-RW DVR-111D Adapter: 0 ID: 0
Режим чтения : Достоверность
Использование точного потока : Да
Отключение кэша аудио : Да
Использование указателей C2 : Нет
Коррекция смещения при чтении : 48
Способность читать области Lead-in и Lead-out : Нет
Заполнение пропущенных сэмплов тишиной : Да
Удаление блоков с тишиной в начале и конце : Нет
При вычислениях CRC использовались нулевые сэмплы : Да
Интерфейс : Встроенный Win32-интерфейс для Win NT/2000
Выходной формат : Внутренние WAV-операции
Формат сэмплов : 44.100 Гц; 16 бит; стерео
TOC извлечённого CD
Трек | Старт | Длительность | Начальный сектор | Конечный сектор
---------------------------------------------------------------------
1 | 0:00.00 | 3:38.40 | 0 | 16389
2 | 3:38.40 | 3:22.53 | 16390 | 31592
3 | 7:01.18 | 3:49.04 | 31593 | 48771
4 | 10:50.22 | 4:00.51 | 48772 | 66822
5 | 14:50.73 | 3:23.37 | 66823 | 82084
6 | 18:14.35 | 3:58.59 | 82085 | 99993
7 | 22:13.19 | 3:07.21 | 99994 | 114039
8 | 25:20.40 | 4:36.13 | 114040 | 134752
9 | 29:56.53 | 4:22.58 | 134753 | 154460
10 | 34:19.36 | 4:41.45 | 154461 | 175580
11 | 39:01.06 | 3:19.11 | 175581 | 190516
12 | 44:52.15 | 2:23.13 | 201915 | 212652
Характеристики диапазона извлечения и сообщения об ошибках
Выбранный диапазон
Имя файла C:\Documents and Settings\Владелец\Рабочий стол\Бумбокс - The Best Of (3CD) (2010) (Flac)\Бумбокс - Family Бiзнес\Бумбокс - Family Бiзнес.wav
Пиковый уровень 98.8 %
Качество диапазона 100.0 %
CRC теста 526DE056
CRC копии 526DE056
Копирование... OK
Ошибок не произошло
AccurateRip: сводка
Трек 1 точное извлечение (доверие 2) [A9E1A57C]
Трек 2 точное извлечение (доверие 2) [335116B9]
Трек 3 точное извлечение (доверие 2) [1076BD06]
Трек 4 точное извлечение (доверие 2) [EE41C858]
Трек 5 точное извлечение (доверие 2) [40499DC4]
Трек 6 точное извлечение (доверие 2) [E31CF48F]
Трек 7 точное извлечение (доверие 2) [19AE83DB]
Трек 8 точное извлечение (доверие 2) [279C7086]
Трек 9 точное извлечение (доверие 2) [2FD37A8E]
Трек 10 точное извлечение (доверие 2) [4BC7E1AD]
Трек 11 точное извлечение (доверие 2) [6CFEBA26]
Все треки извлечены точно
Конец отчёта

3: Бумбокс - Краще

Трэклист:
01. Вахтёрам (4:01)
02. Ким ми були (3:38)
03. Наодинці (4:16)
04. Бобік (3:20)
05. Поліна (4:19)
06. День (4:40)
07. Супер-Пупер (2:55)
08. Що ти зміг (4:11)
09. Стяги на стяги (3:14)
10. Гайки з Ямайки (4:14)
11. Хоттабыч (4:37)
12. Квіти в волоссі (3:58)
13. Діагноз (3:33)
14. Бета-Каротин (3:21)
15. Eva (3:31)
16. Віддаю (3:07)
17. Тримай (3:46)
18. E-mail (3:34)
19. Королева (3:22)
20. TNT (3:42)
21. та4то (3:24)
-

Отчёт EAC

Exact Audio Copy V0.99 prebeta 5 from 4. May 2009
Отчёт EAC об извлечении, выполненном 8. февраля 2010, 17:38
Бумбокс / Краще
Дисковод: PIONEER DVD-RW DVR-111D Adapter: 0 ID: 0
Режим чтения : Достоверность
Использование точного потока : Да
Отключение кэша аудио : Да
Использование указателей C2 : Нет
Коррекция смещения при чтении : 48
Способность читать области Lead-in и Lead-out : Нет
Заполнение пропущенных сэмплов тишиной : Да
Удаление блоков с тишиной в начале и конце : Нет
При вычислениях CRC использовались нулевые сэмплы : Да
Интерфейс : Встроенный Win32-интерфейс для Win NT/2000
Выходной формат : Внутренние WAV-операции
Формат сэмплов : 44.100 Гц; 16 бит; стерео
TOC извлечённого CD
Трек | Старт | Длительность | Начальный сектор | Конечный сектор
---------------------------------------------------------------------
1 | 0:00.00 | 4:00.42 | 0 | 18041
2 | 4:00.42 | 3:38.34 | 18042 | 34425
3 | 7:39.01 | 4:15.65 | 34426 | 53615
4 | 11:54.66 | 3:20.27 | 53616 | 68642
5 | 15:15.18 | 4:18.56 | 68643 | 88048
6 | 19:33.74 | 4:40.00 | 88049 | 109048
7 | 24:13.74 | 2:55.12 | 109049 | 122185
8 | 27:09.11 | 4:11.13 | 122186 | 141023
9 | 31:20.24 | 3:13.55 | 141024 | 155553
10 | 34:34.04 | 4:14.33 | 155554 | 174636
11 | 38:48.37 | 4:36.59 | 174637 | 195395
12 | 43:25.21 | 3:57.67 | 195396 | 213237
13 | 47:23.13 | 3:32.46 | 213238 | 229183
14 | 50:55.59 | 3:21.14 | 229184 | 244272
15 | 54:16.73 | 3:30.71 | 244273 | 260093
16 | 57:47.69 | 3:07.17 | 260094 | 274135
17 | 60:55.11 | 3:45.42 | 274136 | 291052
18 | 64:40.53 | 3:33.58 | 291053 | 307085
19 | 68:14.36 | 3:21.52 | 307086 | 322212
20 | 71:36.13 | 3:41.38 | 322213 | 338825
21 | 75:17.51 | 3:23.56 | 338826 | 354106
Характеристики диапазона извлечения и сообщения об ошибках
Выбранный диапазон
Имя файла C:\Documents and Settings\Владелец\Рабочий стол\Бумбокс - The Best Of (3CD) (2010) (Flac)\Бумбокс - Краще\Бумбокс - Краще.wav
Пиковый уровень
98.8 %
Качество диапазона 100.0 %
CRC теста 89A9AFB4
CRC копии 89A9AFB4
Копирование... OK
Ошибок не произошло
AccurateRip: сводка
Трек 1 нет в базе данных
Трек 2 нет в базе данных
Трек 3 нет в базе данных
Трек 4 нет в базе данных
Трек 5 нет в базе данных
Трек 6 нет в базе данных
Трек 7 нет в базе данных
Трек 8 нет в базе данных
Трек 9 нет в базе данных
Трек 10 нет в базе данных
Трек 11 нет в базе данных
Трек 12 нет в базе данных
Трек 13 нет в базе данных
Трек 14 нет в базе данных
Трек 15 нет в базе данных
Трек 16 нет в базе данных
Трек 17 нет в базе данных
Трек 18 нет в базе данных
Трек 19 нет в базе данных
Трек 20 нет в базе данных
Трек 21 нет в базе данных
Ни одного трека нет в базе AccurateRip
Конец отчёта
-Внутри бокса: два альбома, которые получили золотой статус в Украине и России - "Меломания" & "Family Бизнес", и подарок - сборник лучших песен группы "Бумбокс - Лучшее"
Рип с оригинала
---
"Mario-os" release style ®
[Profile]  [PM] 
Display posts:    
Reply to topic

Current time is: 25-Jul 04:47

All times are UTC + 2



You cannot post new topics in this forum
You cannot reply to topics in this forum
You cannot edit your posts in this forum
You cannot delete your posts in this forum
You cannot vote in polls in this forum
You cannot attach files in this forum
You cannot download files in this forum