(Rock) Green Grey - 3 альбома (2002:2008), FLAC (tracks), lossless

Reply to topic
 
Author
Message

mario-OS ®

Gender: Male

Longevity: 11 years

Posts: 575

Reputation: 31 [+] [-]

Location: ...из страны, где шлюха стоит всего лишь доллар, солнце всегда и везде (с)

mario-OS · Post 13-Mar-2010 21:02

[Quote] 

--Green Grey-- Жанр: Rock
Год выпуска диска:2002:2008
Производитель диска:Real Records
Аудио кодек: FLAC
Тип рипа:Tracks+.cue
Битрейт аудио: lossless
Продолжительность:03:20:18

Green Grey - Эмигрант - 2002

Трэклист:
01. Все Будет Хорошо
02. Эмигрант
03. Большие Облака
04. Весна Восьмого Дня
05. Дельтаплан
06. Только Ночью
07. Прощай
08. Сон
09. Колыбельная
10. На Стыке Веков
11. Увага
12. Розы
13. Сверхзвуковой
14. Темная Ночь
-

Cue Sheet

REM GENRE Rock
REM DATE 2002
REM DISCID B20C860E
REM COMMENT "ExactAudioCopy v0.99pb5"
PERFORMER "Green Grey"
TITLE "Эмигрант"
FILE "01 - Все Будет Хорошо.wav" WAVE
TRACK 01 AUDIO
TITLE "Все Будет Хорошо"
PERFORMER "Green Grey"
INDEX 01 00:00:00
FILE "02 - Эмигрант.wav" WAVE
TRACK 02 AUDIO
TITLE "Эмигрант"
PERFORMER "Green Grey"
INDEX 01 00:00:00
FILE "03 - Большие Облака.wav" WAVE
TRACK 03 AUDIO
TITLE "Большие Облака"
PERFORMER "Green Grey"
INDEX 01 00:00:00
FILE "04 - Весна Восьмого Дня.wav" WAVE
TRACK 04 AUDIO
TITLE "Весна Восьмого Дня"
PERFORMER "Green Grey"
INDEX 01 00:00:00
FILE "05 - Дельтаплан.wav" WAVE
TRACK 05 AUDIO
TITLE "Дельтаплан"
PERFORMER "Green Grey"
INDEX 01 00:00:00
FILE "06 - Только Ночью.wav" WAVE
TRACK 06 AUDIO
TITLE "Только Ночью"
PERFORMER "Green Grey"
INDEX 01 00:00:00
FILE "07 - Прощай.wav" WAVE
TRACK 07 AUDIO
TITLE "Прощай"
PERFORMER "Green Grey"
INDEX 01 00:00:00
FILE "08 - Сон.wav" WAVE
TRACK 08 AUDIO
TITLE "Сон"
PERFORMER "Green Grey"
INDEX 01 00:00:00
FILE "09 - Колыбельная.wav" WAVE
TRACK 09 AUDIO
TITLE "Колыбельная"
PERFORMER "Green Grey"
INDEX 01 00:00:00
FILE "10 - На Стыке Веков.wav" WAVE
TRACK 10 AUDIO
TITLE "На Стыке Веков"
PERFORMER "Green Grey"
INDEX 01 00:00:00
FILE "11 - Увага.wav" WAVE
TRACK 11 AUDIO
TITLE "Увага"
PERFORMER "Green Grey"
INDEX 01 00:00:00
FILE "12 - Розы.wav" WAVE
TRACK 12 AUDIO
TITLE "Розы"
PERFORMER "Green Grey"
INDEX 01 00:00:00
FILE "13 - Сверхзвуковой.wav" WAVE
TRACK 13 AUDIO
TITLE "Сверхзвуковой"
PERFORMER "Green Grey"
INDEX 01 00:00:00
FILE "14 - Темная Ночь.wav" WAVE
TRACK 14 AUDIO
TITLE "Темная Ночь"
PERFORMER "Green Grey"
INDEX 01 00:00:00

Отчёт EAC

Exact Audio Copy V0.99 prebeta 5 from 4. May 2009
EAC extraction logfile from 23. June 2009, 18:52
Green Grey / Эмигрант
Used drive : PIONEER DVD-RW DVR-217F Adapter: 1 ID: 0
Read mode : Secure
Utilize accurate stream : Yes
Defeat audio cache : Yes
Make use of C2 pointers : No
Read offset correction : 96
Overread into Lead-In and Lead-Out : No
Fill up missing offset samples with silence : Yes
Delete leading and trailing silent blocks : No
Null samples used in CRC calculations : Yes
Used interface : Installed external ASPI interface
Gap handling : Appended to previous track
Used output format : Internal WAV Routines
Sample format : 44.100 Hz; 16 Bit; Stereo
TOC of the extracted CD
Track | Start | Length | Start sector | End sector
---------------------------------------------------------
1 | 0:00.00 | 3:50.54 | 0 | 17303
2 | 3:50.54 | 4:44.70 | 17304 | 38673
3 | 8:35.49 | 2:54.06 | 38674 | 51729
4 | 11:29.55 | 3:58.71 | 51730 | 69650
5 | 15:28.51 | 3:42.48 | 69651 | 86348
6 | 19:11.24 | 3:28.00 | 86349 | 101948
7 | 22:39.24 | 3:00.03 | 101949 | 115451
8 | 25:39.27 | 5:21.07 | 115452 | 139533
9 | 31:00.34 | 3:16.08 | 139534 | 154241
10 | 34:16.42 | 4:37.39 | 154242 | 175055
11 | 38:54.06 | 3:07.60 | 175056 | 189140
12 | 42:01.66 | 4:04.29 | 189141 | 207469
13 | 46:06.20 | 2:34.33 | 207470 | 219052
14 | 48:40.53 | 4:45.70 | 219053 | 240497
Track 1
Filename 01 - Все Будет Хорошо.wav
Pre-gap length 0:00:02.00
Peak level 98.7 %
Track quality 100.0 %
Test CRC 57FFB45B
Copy CRC 57FFB45B
Copy OK
Track 2
Filename 02 - Эмигрант.wav
Peak level 98.8 %
Track quality 99.9 %
Test CRC 7061E2A0
Copy CRC 7061E2A0
Copy OK
Track 3
Filename 03 - Большие Облака.wav
Peak level 98.8 %
Track quality 100.0 %
Test CRC 1567BEDD
Copy CRC 1567BEDD
Copy OK
Track 4
Filename 04 - Весна Восьмого Дня.wav
Peak level 98.8 %
Track quality 100.0 %
Test CRC D7F1692E
Copy CRC D7F1692E
Copy OK
Track 5
Filename 05 - Дельтаплан.wav
Peak level 98.8 %
Track quality 100.0 %
Test CRC B21D61C8
Copy CRC B21D61C8
Copy OK
Track 6
Filename 06 - Только Ночью.wav
Peak level 98.8 %
Track quality 100.0 %
Test CRC C1E11D97
Copy CRC C1E11D97
Copy OK
Track 7
Filename 07 - Прощай.wav
Peak level 98.8 %
Track quality 100.0 %
Test CRC 49703A85
Copy CRC 49703A85
Copy OK
Track 8
Filename 08 - Сон.wav
Peak level 98.8 %
Track quality 99.9 %
Test CRC BD2A5112
Copy CRC BD2A5112
Copy OK
Track 9
Filename 09 - Колыбельная.wav
Peak level 98.8 %
Track quality 100.0 %
Test CRC 8E3F4E6B
Copy CRC 8E3F4E6B
Copy OK
Track 10
Filename 10 - На Стыке Веков.wav
Peak level 98.8 %
Track quality 100.0 %
Test CRC E551D183
Copy CRC E551D183
Copy OK
Track 11
Filename 11 - Увага.wav
Peak level 98.8 %
Track quality 100.0 %
Test CRC 1F41C44F
Copy CRC 1F41C44F
Copy OK
Track 12
Filename 12 - Розы.wav
Peak level 98.8 %
Track quality 99.9 %
Test CRC C750DB62
Copy CRC C750DB62
Copy OK
Track 13
Filename 13 - Сверхзвуковой.wav
Peak level 98.8 %
Track quality 100.0 %
Test CRC A191CCE5
Copy CRC A191CCE5
Copy OK
Track 14
Filename 14 - Темная Ночь.wav
Peak level 98.8 %
Track quality 99.9 %
Test CRC FF64B8F1
Copy CRC FF64B8F1
Copy OK
No errors occurred
End of status report

Green Grey - Метаморфоза - 2004

Трэклист:
1. Плохие парни
2. Стереосистема
3. Белый флаг
4. Солнце и луна
5. Берега
6. Плачу плачу
7. Все прошло
8. Я не вернусь
9. Звезда дискотеки
10. Там кто-то ждет тебя
11. Хороший день
-

Cue Sheet

REM GENRE Rock
REM DATE 2004
REM DISCID 860AA30C
REM COMMENT "ExactAudioCopy v0.99pb5"
PERFORMER "Green Grey"
TITLE "Метаморфоза"
FILE "01 - Плохие Парни.wav" WAVE
TRACK 01 AUDIO
TITLE "Плохие Парни"
PERFORMER "Green Grey"
FLAGS DCP
INDEX 01 00:00:00
FILE "02 - Стереосистема.wav" WAVE
TRACK 02 AUDIO
TITLE "Стереосистема"
PERFORMER "Green Grey"
FLAGS DCP
INDEX 01 00:00:00
FILE "03 - Белый Флаг.wav" WAVE
TRACK 03 AUDIO
TITLE "Белый Флаг"
PERFORMER "Green Grey"
FLAGS DCP
INDEX 01 00:00:00
FILE "04 - Солнце & Луна.wav" WAVE
TRACK 04 AUDIO
TITLE "Солнце & Луна"
PERFORMER "Green Grey"
FLAGS DCP
INDEX 01 00:00:00
FILE "05 - Берега.wav" WAVE
TRACK 05 AUDIO
TITLE "Берега"
PERFORMER "Green Grey"
FLAGS DCP
INDEX 01 00:00:00
FILE "06 - Плачу Плачу.wav" WAVE
TRACK 06 AUDIO
TITLE "Плачу Плачу"
PERFORMER "Green Grey"
FLAGS DCP
INDEX 01 00:00:00
FILE "07 - Все Прошло.wav" WAVE
TRACK 07 AUDIO
TITLE "Все Прошло"
PERFORMER "Green Grey"
FLAGS DCP
INDEX 01 00:00:00
FILE "08 - Я Не Вернусь.wav" WAVE
TRACK 08 AUDIO
TITLE "Я Не Вернусь"
PERFORMER "Green Grey"
FLAGS DCP
INDEX 01 00:00:00
FILE "09 - Звезда Дискотеки.wav" WAVE
TRACK 09 AUDIO
TITLE "Звезда Дискотеки"
PERFORMER "Green Grey"
FLAGS DCP
INDEX 01 00:00:00
FILE "10 - Там Кто-то Ждет Тебя.wav" WAVE
TRACK 10 AUDIO
TITLE "Там Кто-то Ждет Тебя"
PERFORMER "Green Grey"
FLAGS DCP
INDEX 01 00:00:00
FILE "11 - Хороший День.wav" WAVE
TRACK 11 AUDIO
TITLE "Хороший День"
PERFORMER "Green Grey"
FLAGS DCP
INDEX 01 00:00:00
FILE "12 - Help (English Version).wav" WAVE
TRACK 12 AUDIO
TITLE "Help (English Version)"
PERFORMER "Green Grey"
FLAGS DCP
INDEX 01 00:00:00

Отчёт EAC

Exact Audio Copy V0.99 prebeta 5 from 4. May 2009
EAC extraction logfile from 2. August 2009, 10:30
Green Grey / Метаморфоза
Used drive : PIONEER DVD-RW DVR-217F Adapter: 1 ID: 0
Read mode : Secure
Utilize accurate stream : Yes
Defeat audio cache : Yes
Make use of C2 pointers : No
Read offset correction : 96
Overread into Lead-In and Lead-Out : No
Fill up missing offset samples with silence : Yes
Delete leading and trailing silent blocks : No
Null samples used in CRC calculations : Yes
Used interface : Installed external ASPI interface
Gap handling : Appended to previous track
Used output format : Internal WAV Routines
Sample format : 44.100 Hz; 16 Bit; Stereo
TOC of the extracted CD
Track | Start | Length | Start sector | End sector
---------------------------------------------------------
1 | 0:00.00 | 3:30.61 | 0 | 15810
2 | 3:30.61 | 4:03.31 | 15811 | 34066
3 | 7:34.17 | 3:37.40 | 34067 | 50381
4 | 11:11.57 | 3:57.35 | 50382 | 68191
5 | 15:09.17 | 3:26.74 | 68192 | 83715
6 | 18:36.16 | 3:58.74 | 83716 | 101639
7 | 22:35.15 | 4:05.44 | 101640 | 120058
8 | 26:40.59 | 3:38.31 | 120059 | 136439
9 | 30:19.15 | 3:30.37 | 136440 | 152226
10 | 33:49.52 | 3:50.19 | 152227 | 169495
11 | 37:39.71 | 3:45.00 | 169496 | 186370
12 | 41:24.71 | 3:58.49 | 186371 | 204269
Track 1
Filename 01 - Плохие Парни.wav
Pre-gap length 0:00:02.00
Peak level 97.7 %
Track quality 100.0 %
Test CRC DF046F5C
Copy CRC DF046F5C
Copy OK
Track 2
Filename 02 - Стереосистема.wav
Peak level 97.7 %
Track quality 99.9 %
Test CRC 9A030E5E
Copy CRC 9A030E5E
Copy OK
Track 3
Filename 03 - Белый Флаг.wav
Peak level 99.4 %
Track quality 100.0 %
Test CRC A73CC6FA
Copy CRC A73CC6FA
Copy OK
Track 4
Filename 04 - Солнце & Луна.wav
Peak level 97.7 %
Track quality 100.0 %
Test CRC 8ED2AA92
Copy CRC 8ED2AA92
Copy OK
Track 5
Filename 05 - Берега.wav
Peak level 97.7 %
Track quality 100.0 %
Test CRC 4549DF43
Copy CRC 4549DF43
Copy OK
Track 6
Filename 06 - Плачу Плачу.wav
Peak level 97.7 %
Track quality 100.0 %
Test CRC 998272C3
Copy CRC 998272C3
Copy OK
Track 7
Filename 07 - Все Прошло.wav
Peak level 97.7 %
Track quality 100.0 %
Test CRC F2F831AA
Copy CRC F2F831AA
Copy OK
Track 8
Filename 08 - Я Не Вернусь.wav
Peak level 90.7 %
Track quality 100.0 %
Test CRC A5641204
Copy CRC A5641204
Copy OK
Track 9
Filename 09 - Звезда Дискотеки.wav
Peak level 99.4 %
Track quality 99.9 %
Test CRC B39C403B
Copy CRC B39C403B
Copy OK
Track 10
Filename 10 - Там Кто-то Ждет Тебя.wav
Peak level 98.1 %
Track quality 100.0 %
Test CRC D4932306
Copy CRC D4932306
Copy OK
Track 11
Filename 11 - Хороший День.wav
Peak level 97.7 %
Track quality 100.0 %
Test CRC 56BF8D10
Copy CRC 56BF8D10
Copy OK
Track 12
Filename 12 - Help (English Version).wav
Peak level 100.0 %
Track quality 100.0 %
Test CRC 81340D01
Copy CRC 81340D01
Copy OK
No errors occurred
End of status report

Green Grey & Sister Siren - 2008

Трэклист:
01. Тридео (feat. Sister Siren)
02. Тридео (feat. Sister Siren) (SNG Tasty Sound Summer Remix)
03. Trideo (feat. Sister Siren) (Tomato Jaws & DannyBoy TS Club Remix)
04. Trideo (feat. Sister Siren) (U$B Breakbeat Remix)
05. Trideo (feat. Sister Siren) (Downbeat Remix by Ferre)
06. Trideo (feat. Sister Siren) (Yarolux Hard House Remix)
07. Trideo (feat. Sister Siren) (Goth Remix by Don Dophamine)
08. Depressive Hurricane
09. Наше Право
10. Основы Жизни
11. Emigrant
-

Cue Sheet

REM GENRE Rock
REM DATE 2008
REM DISCID A3107A0C
REM COMMENT "ExactAudioCopy v0.99pb5"
PERFORMER "Green Grey"
TITLE "Trideo"
FILE "01 - Тридео (feat. Sister Siren).wav" WAVE
TRACK 01 AUDIO
TITLE "Тридео (feat. Sister Siren)"
PERFORMER "Green Grey"
FLAGS DCP
INDEX 01 00:00:00
FILE "02 - Тридео (feat. Sister Siren) (SNG Tasty Sound Summer Remix).wav" WAVE
TRACK 02 AUDIO
TITLE "Тридео (feat. Sister Siren) (SNG Tasty Sound Summer Remix)"
PERFORMER "Green Grey"
FLAGS DCP
INDEX 01 00:00:00
FILE "03 - Trideo (feat. Sister Siren) (Tomato Jaws & DannyBoy TS Club Remix).wav" WAVE
TRACK 03 AUDIO
TITLE "Trideo (feat. Sister Siren) (Tomato Jaws & DannyBoy TS Club Remix)"
PERFORMER "Green Grey"
FLAGS DCP
INDEX 01 00:00:00
FILE "04 - Trideo (feat. Sister Siren) (U$B Breakbeat Remix).wav" WAVE
TRACK 04 AUDIO
TITLE "Trideo (feat. Sister Siren) (U$B Breakbeat Remix)"
PERFORMER "Green Grey"
FLAGS DCP
INDEX 01 00:00:00
FILE "05 - Trideo (feat. Sister Siren) (Downbeat Remix by Ferre).wav" WAVE
TRACK 05 AUDIO
TITLE "Trideo (feat. Sister Siren) (Downbeat Remix by Ferre)"
PERFORMER "Green Grey"
FLAGS DCP
INDEX 01 00:00:00
FILE "06 - Trideo (feat. Sister Siren) (Yarolux Hard House Remix).wav" WAVE
TRACK 06 AUDIO
TITLE "Trideo (feat. Sister Siren) (Yarolux Hard House Remix)"
PERFORMER "Green Grey"
FLAGS DCP
INDEX 01 00:00:00
FILE "07 - Trideo (feat. Sister Siren) (Goth Remix by Don Dophamine).wav" WAVE
TRACK 07 AUDIO
TITLE "Trideo (feat. Sister Siren) (Goth Remix by Don Dophamine)"
PERFORMER "Green Grey"
FLAGS DCP
INDEX 01 00:00:00
FILE "08 - Depressive Hurricane.wav" WAVE
TRACK 08 AUDIO
TITLE "Depressive Hurricane"
PERFORMER "Green Grey"
FLAGS DCP
INDEX 01 00:00:00
FILE "09 - Наше Право.wav" WAVE
TRACK 09 AUDIO
TITLE "Наше Право"
PERFORMER "Green Grey"
FLAGS DCP
INDEX 01 00:00:00
FILE "10 - Основы Жизни.wav" WAVE
TRACK 10 AUDIO
TITLE "Основы Жизни"
PERFORMER "Green Grey"
FLAGS DCP
INDEX 01 00:00:00
FILE "11 - Emigrant.wav" WAVE
TRACK 11 AUDIO
TITLE "Emigrant"
PERFORMER "Green Grey"
FLAGS DCP
INDEX 01 00:00:00
TRACK 12 MODEx/2xxx
TITLE "Track12"
PERFORMER "Green Grey"
INDEX 00 04:41:02

Отчёт EAC

Exact Audio Copy V0.99 prebeta 5 from 4. May 2009
EAC extraction logfile from 2. August 2009, 11:37
Green Grey / Trideo
Used drive : PIONEER DVD-RW DVR-217F Adapter: 1 ID: 0
Read mode : Secure
Utilize accurate stream : Yes
Defeat audio cache : Yes
Make use of C2 pointers : No
Read offset correction : 96
Overread into Lead-In and Lead-Out : No
Fill up missing offset samples with silence : Yes
Delete leading and trailing silent blocks : No
Null samples used in CRC calculations : Yes
Used interface : Installed external ASPI interface
Gap handling : Appended to previous track
Used output format : Internal WAV Routines
Sample format : 44.100 Hz; 16 Bit; Stereo
TOC of the extracted CD
Track | Start | Length | Start sector | End sector
---------------------------------------------------------
1 | 0:00.00 | 4:10.00 | 0 | 18749
2 | 4:10.00 | 5:19.00 | 18750 | 42674
3 | 9:29.00 | 4:51.00 | 42675 | 64499
4 | 14:20.00 | 3:54.00 | 64500 | 82049
5 | 18:14.00 | 3:45.00 | 82050 | 98924
6 | 21:59.00 | 3:54.00 | 98925 | 116474
7 | 25:53.00 | 3:41.00 | 116475 | 133049
8 | 29:34.00 | 5:00.00 | 133050 | 155549
9 | 34:34.00 | 3:57.00 | 155550 | 173324
10 | 38:31.00 | 3:46.00 | 173325 | 190274
11 | 42:17.00 | 4:41.02 | 190275 | 211351
12 | 49:30.02 | 20:48.02 | 222752 | 316353
Track 1
Filename 01 - Тридео (feat. Sister Siren).wav
Pre-gap length 0:00:02.00
Peak level 97.3 %
Track quality 100.0 %
Test CRC 005DAE9A
Copy CRC 005DAE9A
Copy OK
Track 2
Filename 02 - Тридео (feat. Sister Siren) (SNG Tasty Sound Summer Remix).wav
Peak level 97.4 %
Track quality 100.0 %
Test CRC B05EA19C
Copy CRC B05EA19C
Copy OK
Track 3
Filename 03 - Trideo (feat. Sister Siren) (Tomato Jaws & DannyBoy TS Club Remix).wav
Peak level 97.0 %
Track quality 100.0 %
Test CRC F056913B
Copy CRC F056913B
Copy OK
Track 4
Filename 04 - Trideo (feat. Sister Siren) (U$B Breakbeat Remix).wav
Peak level 97.3 %
Track quality 100.0 %
Test CRC 33646E3D
Copy CRC 33646E3D
Copy OK
Track 5
Filename 05 - Trideo (feat. Sister Siren) (Downbeat Remix by Ferre).wav
Peak level 97.3 %
Track quality 100.0 %
Test CRC 7E13DD85
Copy CRC 7E13DD85
Copy OK
Track 6
Filename 06 - Trideo (feat. Sister Siren) (Yarolux Hard House Remix).wav
Peak level 96.4 %
Track quality 100.0 %
Test CRC 1574158C
Copy CRC 1574158C
Copy OK
Track 7
Filename 07 - Trideo (feat. Sister Siren) (Goth Remix by Don Dophamine).wav
Peak level 97.3 %
Track quality 100.0 %
Test CRC 86A653D1
Copy CRC 86A653D1
Copy OK
Track 8
Filename 08 - Depressive Hurricane.wav
Peak level 97.3 %
Track quality 100.0 %
Test CRC A0DCFE6F
Copy CRC A0DCFE6F
Copy OK
Track 9
Filename 09 - Наше Право.wav
Peak level 97.4 %
Track quality 100.0 %
Test CRC BA027D16
Copy CRC BA027D16
Copy OK
Track 10
Filename 10 - Основы Жизни.wav
Peak level 97.4 %
Track quality 100.0 %
Test CRC ECAC4F87
Copy CRC ECAC4F87
Copy OK
Track 11
Filename 11 - Emigrant.wav
Peak level 97.1 %
Track quality 100.0 %
Test CRC 8B4A2538
Copy CRC 8B4A2538
Copy OK
No errors occurred
End of status report
--

Биография

Green Grey
Дизель и Мурик, инь и ян, альфа и омега группы «Грин Грей», в шутку окрестили свою музыку «укр-поп» - по аналогии с брит-попом. Жаль, что название не закрепилось, а явление «укр-попа» народу состоялось только однажды - в творчестве «Грин Грея», скрестивших рок, фанк, поп-музыку, трип-хоп и ди-джейские добавки. Если это и была только шутка, то, преподнесенная в протяжных, упругих мелодиях «Подо**ем под дождем», «Мазафака» или «Депрессивный листопад», она произвела мощный эффект и запомнилась надолго.
История этой шутки началась на заре 90-х. Молодых киевлян Андрея Юрьевича Яценко (будущего Дизеля) и Дмитрия Генриховича Муравицкого (ака Мурик) познакомил некто Сэм, небезызвестный вокалист, обучавший Мурика пению. Андрей Яценко, у которого уже была своя команда, не долго думая предложил Диме почетный пост лид-вокалиста, но Муравицкий тогда еще питал надежду стать врачом и не мог пожертвовать учебой в мединституте. У Андрея нужное образование уже было («Вообще-то у меня есть диплом Пражской консерватории», - отвечает он на вопрос о своей профессиональной подготовке), он успел отслужить в армии (Чехословакия, Центральная группа войск), где отдавал воинский долг в ансамбле песни и пляски, а затем руководил группой «Рок-альтернатива», которая очень неплохо развернулась: ездила на гастроли в Варшаву, победила в конкурсе «Когда поют солдаты». После армии родина встретила своего героя перестроечным бурлением, которое нисколько не отбило у него охоту заниматься музыкой.
Сведения о первом составе его рок-команды затерялись в архивах памяти. Официальный отсчет истории «Грин Грея» ведется с мая 1993 года, когда Дима Муравицкий понял, что украинская медицина обойдется и без него и, успев попробовать свои силы в киевской группе Monkey Work, в конце концов решил принять предложение Андрея. Так появился несокрушимый тандем Мурика-Дизеля, ни на кого не похожего вокалиста/автора текстов и талантливого гитариста/ композитора/аранжировщика. Третьим к ним присоединился Анатолий Вексклярский, известный в музыкальных кругах как DJ Jamix, или ди-джей Толя (по совместительству радио- и телеведущий).
На мучительный для непосвященных вопрос о происхождении названия «Грин Грей» музыканты всегда отвечали уклончиво. Так что версий ходило множество, вплоть до банального совпадения с цветом глаз музыкантов: у Дизеля они зелено-серые, у Мурика - серо-зеленые. Самый развернутый ответ дал в свое время Дизель: «Как возникло название «Грин Грей»? По дороге с Березняков на Крещатик. Мне попался необычный таксист - большой специалист по нумерологии. Пока мы ехали, я с ним советовался, а он все просчитывал по своей науке. И получалось, что это название подходит больше всего. Кстати, он оказался совершенно прав. Все, что он предсказал, сбывается».
Свежеукомплектованный экипаж с таким энтузиазмом взялся за дело, что буквально через несколько месяцев начал коллекционировать награды и премии. Заводная, тонизирующая музыка «Грин Грея» пришлась ко двору не только в Украине, но и в сопредельных государствах. Первый серьезный трофей команды - Гран-при на московском фестивале «Живой звук» в 1993 году. Так что неудивительно, что по возвращении на родину музыканты сразу попали в продюсерские объятия компании «MC Entertainment». И оказались втянутыми - к обоюдному удовольствию - в водоворот шоу-бизнеса.
В 1994-м они превосходно выступили на фестивале «Белые ночи Санкт-Петербурга» и удостоились специального приза от президента MTV Уильяма Роуди (William Roedy). Что повело за собой приглашение в Лондон, так сказать, в гости к MTV. Вскоре музыканты получают предложение о сотрудничестве с компанией «Pepsi», настойчиво советуя молодому поколению определиться со своим выбором, чем уже занимались такие мировые гранды, как Spice Girls, Майкл Джексон и т.д.
Стоит отметить, что «зелено-серые» всегда находили чем заняться и помимо музыки. Дизель откровенно называет «Грин Грей» социальной командой, считая, что музыканты не должны оставаться в стороне от того, чем живет остальная страна. Скажем, они давно сотрудничают с организацией «GreenPeace Украина» и именно с ее подачи в 1995 году участвовали в акции протеста, проходившей в Киеве перед зданием французского посольства, - это была реакция на испытания ядерного оружия, проведенные Францией на атолле Муруроа.
Мало-помалу накапливался материал для дебютного альбома, который обещал стать заметным явлением на украинской рок-сцене. Это нетрудно было спрогнозировать, судя хотя бы по первому громкому хиту команды «Подо**ем под дождем». В 1996 году с этой песней музыканты покорили зрителей и жюри фестиваля «Поколение-96», с которого увезли Гран-при. Эта же достаточно своеобразная мелодия два года подряд становилась песней года по версии киевского «Парада хит-парадов».
Дебютный альбом команды, получивший название «Грин Грей», вышел в 1997 году к вящей радости многочисленных фанов. Эта яркая, колоритная работа, нафаршированная упругими мелодиями и мускулистыми гитарными проигрышами, вызвала активный интерес со стороны меломанской общественности Украины и России, катапультировав в хит-парады скандальную песню «Мазафака» - один из первых треков, запущенных в эфир компанией «Наше радио» на заре ее существования. Этот трек музыканты посвятили своему другу, который находился тогда в больнице.
С таким альбомом в активе команда два года подряд становилась героем церемонии награждения «Золотая Жар-птица», в 1998-м удостоившись звания лучшей альтернативной группы, а в 99-м - лучшей рок-группы Украины.
В это время в коллективе назревали кадровые перестановки. С «Грин Греем» начинает выступать барабанщик Ярослав Рева, Анатолий Вексклярский передает свои полномочия ди-джею Шалому (Shalom; в миру Дмитрий Богданов). Более того, в составе появляется постоянный клавишник - 20-летний Жан (откликается и на Джорджа), самый молодой участник, зато самый цепкий из всех клавишников, прошедших через ряды «зелено-серых» и сменявших друг друга примерно раз в 2 месяца.
Второй студийный альбом «550 MF», или «550 метров фанка», выпущенный в 2000 году, был делом их умелых рук. Как и дебютная пластинка, альбом пользовался большим успехом у рок-фанов. Больше всего внимания досталось композиции «Депрессивный листопад», одной из самых известных в коллекции «ГГ», посвященной проблеме наркомании.
Команду отличало умение не только выдавать на-гора потенциальные хиты, но и устраивать яркие, запоминающиеся шоу. Одним из самых впечатляющих концертов «Грин Грея» остается выступление на фестивале «Нашествие» в 2000 году. Команду все чаще приглашают открывать концерты мировых звезд, так что Мурику, Дизелю и компании посчастливилось играть на одной сцене с Prodigy, Whitesnake, Faith No More, A-HA, SNAP!, Run D.M.C. и другими артистами и группами.
-
"Mario-os" release style ®
[Profile]  [PM] 
Display posts:    
Reply to topic

Current time is: 25-Jul 22:08

All times are UTC + 2



You cannot post new topics in this forum
You cannot reply to topics in this forum
You cannot edit your posts in this forum
You cannot delete your posts in this forum
You cannot vote in polls in this forum
You cannot attach files in this forum
You cannot download files in this forum