Войны креста / Перекрестные войны / Крест. Часть вторая: Двойной обман / Cross Wars (Патрик Дархэм / Patrick Durham) [2017, США, Боевик, BDRip] MVO (iTunes)

Reply to topic
 
Author
Message

Satyr ®

Online

Gender: Unknown

Longevity: 12 years

Posts: 17867

Reputation: 56 [+] [-]

Satyr · Post 13-Feb-2017 17:35

[Quote] 

Войны креста / Перекрестные войны / Крест. Часть вторая: Двойной обман / Cross Wars
Страна: США
Жанр: боевик
Год выпуска: 2017
Продолжительность: 01:38:15
Перевод: Профессиональный (многоголосый закадровый) - (iTunes)
Cубтитры: нет
Оригинальная аудиодорожка: нет
Режиссер: Патрик Дархэм / Patrick Durham
В ролях: Брайан Остин Грин, Дэнни Трехо, Винни Джонс, Патрик Дархэм, Том Сайзмор, Лори Хёринг, Тим Эбелл, Андре Гордон, Нед Либл
Описание: Возвращение непримиримого борца со злом Каллана, обладателя древнего магического амулета Крест, и его брутальной команды. Теперь их жизням угрожает новый враг Муэрте и их старый знакомый, проклятый викинг Гуннар. Чтобы спастись самим и спасти всё человечество, герои вынуждены объединиться с командой воинственных женщин, возглавляемых красавицей Райли, у которой есть своей древний амулет.
Сэмпл: http://multi-up.com/1140302
Качество видео: BDRip
Исходник: Cross.Wars.2017.BDRemux.1080p.NovaLan
Формат видео: AVI
Видео: 720x384 (1.88:1), 23.976 fps, XviD build 65 ~1733 kbps avg, 0.26 bit/pixel
Аудио RUS: 48 kHz, AC3 Dolby Digital, 3/2 (L,C,R,l,r) + LFE ch, ~384 kbps
Rip by Ториял для

MediaInfo

ормат : AVI
Формат/Информация : Audio Video Interleave
Размер файла : 1,46 Гбайт
Продолжительность : 1 ч. 38 м.
Общий поток : 2127 Кбит/сек
Программа кодирования : VirtualDubMod 1.5.10.3 | www.virtualdub-fr.org || (build 2550/release)
Библиотека кодирования : VirtualDubMod build 2550/release
Видео
Идентификатор : 0
Формат : MPEG-4 Visual
Профиль формата : Advanced Simple@L5
Параметр BVOP формата : 1
Параметр QPel формата : Нет
Параметр GMC формата : Без точки перехода
Параметр матрицы формата : Выборочная
Идентификатор кодека : XVID
Идентификатор кодека/Подсказка : XviD
Продолжительность : 1 ч. 38 м.
Битрейт : 1733 Кбит/сек
Ширина : 720 пикселей
Высота : 384 пикселя
Соотношение сторон : 1,85:1
Частота кадров : 23,976 (24000/1001) кадра/сек
Цветовое пространство : YUV
Субдискретизация насыщенности : 4:2:0
Битовая глубина : 8 бит
Тип развёртки : Прогрессивная
Метод сжатия : С потерями
Бит/(Пиксели*Кадры) : 0.261
Размер потока : 1,19 Гбайт (82%)
Библиотека кодирования : XviD 65
Аудио
Идентификатор : 1
Формат : AC-3
Формат/Информация : Audio Coding 3
Расширение режима : CM (complete main)
Параметр Endianness формата : Big
Идентификатор кодека : 2000
Продолжительность : 1 ч. 38 м.
Вид битрейта : Постоянный
Битрейт : 384 Кбит/сек
Каналы : 6 каналов
Расположение каналов : Front: L C R, Side: L R, LFE
Частота : 48,0 КГц
Частота кадров : 31,250 кадров/сек (1536 spf)
Битовая глубина : 16 бит
Метод сжатия : С потерями
Размер потока : 270 Мбайт (18%)
Выравнивание : Разделение по промежуткам
Продолжительность промежутка : 42 мс. (1,00 видеокадр)
Время предзагрузки промежутка : 500 мс.

Скриншоты

[Profile]  [PM] 
Display posts:    
Reply to topic

Current time is: 25-Jul 21:58

All times are UTC + 2



You cannot post new topics in this forum
You cannot reply to topics in this forum
You cannot edit your posts in this forum
You cannot delete your posts in this forum
You cannot vote in polls in this forum
You cannot attach files in this forum
You cannot download files in this forum