(Score) Аватар / Avatar (James Horner) - 2009, FLAC (tracks+.cue), lossless - 2000, AC3, 64 kbps

Reply to topic
 
Author
Message

mario-OS ®

Gender: Male

Longevity: 14 years

Posts: 575

Reputation: 31 [+] [-]

Location: ...из страны, где шлюха стоит всего лишь доллар, солнце всегда и везде (с)

mario-OS · Post 28-Jan-2010 22:28

[Quote] 

[font="sans-serif"]Аватар / Avatar
Music by James Horner
- -[font="sans-serif"]Жанр: Score
Год выпуска диска: 2009
Производитель диска: Atlantic
Аудио кодек: FLAC
Тип рипа: tracks+.cue
Битрейт аудио: lossless
Продолжительность: 01:18:57-Трэклист:-01. James Horner - You dont dream in cryo. .... [06:09]
02. James Horner - Jake enters his avatar world [05:24]
03. James Horner - Pure spirits of the forest [08:49]
04. James Horner - The bioluminescence of the night [03:37]
05. James Horner - Becoming one of The People Becoming one with Neytiri [07:43]
06. James Horner - Climbing up Iknimaya - The Path to Heaven [03:18]
07. James Horner - Jakes first flight [04:49]
08. James Horner - Scorched earth [03:32]
09. James Horner - Quaritch [05:01]
10. James Horner - The destruction of Hometree [06:47]
11. James Horner - Shutting down Graces lab [02:47]
12. James Horner - Gathering all the Navi clans for battle [05:14]
13. James Horner - War [11:21]
14. Leona Lewis - I See You (Theme from Avatar) [04:20]
-

X Lossless Decoder Log

X Lossless Decoder version 20091212 (114.6)
XLD extraction logfile from 2009-12-15 13:54:01 -0500
Various Artists / Avatar
Used drive : HL-DT-ST DVDRW GS23N (revision SB03)
Use cdparanoia mode : YES (CDParanoia III 10.2 engine)
Disable audio cache : OK for the drive with cache less than 2750KB
Make use of C2 pointers : NO
Read offset correction : 667
Max retry count : 100
TOC of the extracted CD
Track | Start | Length | Start sector | End sector
---------------------------------------------------------
1 | 00:00:00 | 06:09:08 | 0 | 27682
2 | 06:09:08 | 05:24:39 | 27683 | 52021
3 | 11:33:47 | 08:49:71 | 52022 | 91767
4 | 20:23:43 | 03:37:30 | 91768 | 108072
5 | 24:00:73 | 07:43:53 | 108073 | 142850
6 | 31:44:51 | 03:18:06 | 142851 | 157706
7 | 35:02:57 | 04:49:72 | 157707 | 179453
8 | 39:52:54 | 03:32:17 | 179454 | 195370
9 | 43:24:71 | 05:01:19 | 195371 | 217964
10 | 48:26:15 | 06:47:21 | 217965 | 248510
11 | 55:13:36 | 02:47:44 | 248511 | 261079
12 | 58:01:05 | 05:14:10 | 261080 | 284639
13 | 63:15:15 | 11:21:47 | 284640 | 335761
14 | 74:36:62 | 04:20:52 | 335762 | 355313
All Tracks
Album gain : 1.01 dB
Peak : 0.999969
Track 01
Filename : /Users/James/Downloads/James Horner - Avatar (FLAC)/01 James Horner - "You don't dream in cryo. ...".flac
Track gain : 4.48 dB
Peak : 0.801727
CRC32 hash (test run) : 7F0357A2
CRC32 hash : 7F0357A2
CRC32 hash (skip zero) : D7D18C2F
AccurateRip signature : 3FAE1E1B
->Track not present in AccurateRip database.
Statistics
Read error : 0
Skipped (treated as error) : 0
Edge jitter error (maybe fixed) : 0
Atom jitter error (maybe fixed) : 0
Drift error (maybe fixed) : 0
Dropped bytes error (maybe fixed) : 0
Duplicated bytes error (maybe fixed) : 0
Inconsistency in error sectors : 0
Track 02
Filename : /Users/James/Downloads/James Horner - Avatar (FLAC)/02 James Horner - Jakes Enters His Avatar World.flac
Track gain : 3.24 dB
Peak : 0.844299
CRC32 hash (test run) : 7701FD3A
CRC32 hash : 7701FD3A
CRC32 hash (skip zero) : 6304BAA6
AccurateRip signature : E1BFCEC8
->Track not present in AccurateRip database.
Statistics
Read error : 0
Skipped (treated as error) : 0
Edge jitter error (maybe fixed) : 0
Atom jitter error (maybe fixed) : 0
Drift error (maybe fixed) : 0
Dropped bytes error (maybe fixed) : 0
Duplicated bytes error (maybe fixed) : 0
Inconsistency in error sectors : 0
Track 03
Filename : /Users/James/Downloads/James Horner - Avatar (FLAC)/03 James Horner - Pure Spirits of the Forest.flac
Track gain : 4.87 dB
Peak : 0.756836
CRC32 hash (test run) : 39581DF3
CRC32 hash : 39581DF3
CRC32 hash (skip zero) : 3669A401
AccurateRip signature : DD40FBF8
->Track not present in AccurateRip database.
Statistics
Read error : 0
Skipped (treated as error) : 0
Edge jitter error (maybe fixed) : 0
Atom jitter error (maybe fixed) : 0
Drift error (maybe fixed) : 0
Dropped bytes error (maybe fixed) : 0
Duplicated bytes error (maybe fixed) : 0
Inconsistency in error sectors : 0
Track 04
Filename : /Users/James/Downloads/James Horner - Avatar (FLAC)/04 James Horner - The Bioluminescence of the Night.flac
Track gain : 8.27 dB
Peak : 0.342285
CRC32 hash (test run) : A3F9766C
CRC32 hash : A3F9766C
CRC32 hash (skip zero) : 57B60B0F
AccurateRip signature : 9CFEA9B1
->Track not present in AccurateRip database.
Statistics
Read error : 0
Skipped (treated as error) : 0
Edge jitter error (maybe fixed) : 0
Atom jitter error (maybe fixed) : 0
Drift error (maybe fixed) : 0
Dropped bytes error (maybe fixed) : 0
Duplicated bytes error (maybe fixed) : 0
Inconsistency in error sectors : 0
Track 05
Filename : /Users/James/Downloads/James Horner - Avatar (FLAC)/05 James Horner - Becoming One of "The People" / Becoming One with Neytiri.flac
Track gain : 4.55 dB
Peak : 0.860596
CRC32 hash (test run) : 6D8EC3F8
CRC32 hash : 6D8EC3F8
CRC32 hash (skip zero) : 7319845E
AccurateRip signature : AF30B991
->Track not present in AccurateRip database.
Statistics
Read error : 0
Skipped (treated as error) : 0
Edge jitter error (maybe fixed) : 0
Atom jitter error (maybe fixed) : 0
Drift error (maybe fixed) : 0
Dropped bytes error (maybe fixed) : 0
Duplicated bytes error (maybe fixed) : 0
Inconsistency in error sectors : 0
Track 06
Filename : /Users/James/Downloads/James Horner - Avatar (FLAC)/06 James Horner - Climbing Up "Iknimaya - The Path to Heaven".flac
Track gain : 4.02 dB
Peak : 0.551178
CRC32 hash (test run) : 9ED80EE2
CRC32 hash : 9ED80EE2
CRC32 hash (skip zero) : 854FA95B
AccurateRip signature : 4E8598E7
->Track not present in AccurateRip database.
Statistics
Read error : 0
Skipped (treated as error) : 0
Edge jitter error (maybe fixed) : 0
Atom jitter error (maybe fixed) : 0
Drift error (maybe fixed) : 0
Dropped bytes error (maybe fixed) : 0
Duplicated bytes error (maybe fixed) : 0
Inconsistency in error sectors : 0
Track 07
Filename : /Users/James/Downloads/James Horner - Avatar (FLAC)/07 James Horner - Jake's First Flight.flac
Track gain : 4.14 dB
Peak : 0.784332
CRC32 hash (test run) : 4FBE0BD0
CRC32 hash : 4FBE0BD0
CRC32 hash (skip zero) : FDA17C78
AccurateRip signature : F5C0B533
->Track not present in AccurateRip database.
Statistics
Read error : 0
Skipped (treated as error) : 0
Edge jitter error (maybe fixed) : 0
Atom jitter error (maybe fixed) : 0
Drift error (maybe fixed) : 0
Dropped bytes error (maybe fixed) : 0
Duplicated bytes error (maybe fixed) : 0
Inconsistency in error sectors : 0
Track 08
Filename : /Users/James/Downloads/James Horner - Avatar (FLAC)/08 James Horner - Scorched Earth.flac
Track gain : 1.26 dB
Peak : 0.830994
CRC32 hash (test run) : B2419685
CRC32 hash : B2419685
CRC32 hash (skip zero) : 0D3FA1BB
AccurateRip signature : 514D0510
->Track not present in AccurateRip database.
Statistics
Read error : 0
Skipped (treated as error) : 0
Edge jitter error (maybe fixed) : 0
Atom jitter error (maybe fixed) : 0
Drift error (maybe fixed) : 0
Dropped bytes error (maybe fixed) : 0
Duplicated bytes error (maybe fixed) : 0
Inconsistency in error sectors : 0
Track 09
Filename : /Users/James/Downloads/James Horner - Avatar (FLAC)/09 James Horner - Quaritch.flac
Track gain : -1.53 dB
Peak : 0.951233
CRC32 hash (test run) : 01FB3649
CRC32 hash : 01FB3649
CRC32 hash (skip zero) : 3E73EB96
AccurateRip signature : E1FD5ACA
->Track not present in AccurateRip database.
Statistics
Read error : 0
Skipped (treated as error) : 0
Edge jitter error (maybe fixed) : 0
Atom jitter error (maybe fixed) : 0
Drift error (maybe fixed) : 0
Dropped bytes error (maybe fixed) : 0
Duplicated bytes error (maybe fixed) : 0
Inconsistency in error sectors : 0
Track 10
Filename : /Users/James/Downloads/James Horner - Avatar (FLAC)/10 James Horner - The Destruction of Hometree.flac
Track gain : -0.56 dB
Peak : 0.999969
CRC32 hash (test run) : A06E03FF
CRC32 hash : A06E03FF
CRC32 hash (skip zero) : DFC11EE1
AccurateRip signature : 87192694
->Track not present in AccurateRip database.
Statistics
Read error : 0
Skipped (treated as error) : 0
Edge jitter error (maybe fixed) : 0
Atom jitter error (maybe fixed) : 0
Drift error (maybe fixed) : 0
Dropped bytes error (maybe fixed) : 0
Duplicated bytes error (maybe fixed) : 0
Inconsistency in error sectors : 0
Track 11
Filename : /Users/James/Downloads/James Horner - Avatar (FLAC)/11 James Horner - Shutting Down Grace's Lab.flac
Track gain : 5.44 dB
Peak : 0.389496
CRC32 hash (test run) : 039210FC
CRC32 hash : 039210FC
CRC32 hash (skip zero) : E218C2D7
AccurateRip signature : F8F42E23
->Track not present in AccurateRip database.
Statistics
Read error : 0
Skipped (treated as error) : 0
Edge jitter error (maybe fixed) : 0
Atom jitter error (maybe fixed) : 0
Drift error (maybe fixed) : 0
Dropped bytes error (maybe fixed) : 0
Duplicated bytes error (maybe fixed) : 0
Inconsistency in error sectors : 0
Track 12
Filename : /Users/James/Downloads/James Horner - Avatar (FLAC)/12 James Horner - Gathering All the Na'vi Clans for Battle.flac
Track gain : 0.07 dB
Peak : 0.979767
CRC32 hash (test run) : 83EFBDD7
CRC32 hash : 83EFBDD7
CRC32 hash (skip zero) : 25536232
AccurateRip signature : 2B3361FF
->Track not present in AccurateRip database.
Statistics
Read error : 0
Skipped (treated as error) : 0
Edge jitter error (maybe fixed) : 0
Atom jitter error (maybe fixed) : 0
Drift error (maybe fixed) : 0
Dropped bytes error (maybe fixed) : 0
Duplicated bytes error (maybe fixed) : 0
Inconsistency in error sectors : 0
Track 13
Filename : /Users/James/Downloads/James Horner - Avatar (FLAC)/13 James Horner - War.flac
Track gain : -0.47 dB
Peak : 0.936279
CRC32 hash (test run) : 9D623EEA
CRC32 hash : 9D623EEA
CRC32 hash (skip zero) : 809C4AAD
AccurateRip signature : 8D63E488
->Track not present in AccurateRip database.
Statistics
Read error : 0
Skipped (treated as error) : 0
Edge jitter error (maybe fixed) : 0
Atom jitter error (maybe fixed) : 0
Drift error (maybe fixed) : 0
Dropped bytes error (maybe fixed) : 0
Duplicated bytes error (maybe fixed) : 0
Inconsistency in error sectors : 0
Track 14
Filename : /Users/James/Downloads/James Horner - Avatar (FLAC)/14 Leona Lewis - I See You (Theme from Avatar).flac
Track gain : -0.15 dB
Peak : 0.496094
CRC32 hash (test run) : 5D9BE404
CRC32 hash : 5D9BE404
CRC32 hash (skip zero) : 709319C8
AccurateRip signature : 4010AE06
->Track not present in AccurateRip database.
Statistics
Read error : 0
Skipped (treated as error) : 0
Edge jitter error (maybe fixed) : 0
Atom jitter error (maybe fixed) : 0
Drift error (maybe fixed) : 0
Dropped bytes error (maybe fixed) : 0
Duplicated bytes error (maybe fixed) : 0
Inconsistency in error sectors : 0
No errors occurred
End of status report
-
"Mario-os" release style ®
[Profile]  [PM] 

ttt666

Gender: Unknown

Longevity: 8 years

Posts: 1

Reputation: 0 [+] [-]

ttt666 · Post 05-Jul-2016 18:15 (after 6 years 5 months)

[Quote] 

"If your ratio falls below 0.3, you will not be able to download Torrents! More about the rating."?
Fuck this
[Profile]  [PM] 

PALANGA10

Gender: Unknown

Longevity: 3 years 5 months

Posts: 4

Reputation: 0 [+] [-]

PALANGA10 · Post 17-Feb-2021 19:20 (after 4 years 7 months)

[Quote] 

41825"If your ratio falls below 0.3, you will not be able to download Torrents! More about the rating."?
Fuck this
[Profile]  [PM] 
Display posts:    
Reply to topic

Current time is: 25-Jul 05:09

All times are UTC + 2



You cannot post new topics in this forum
You cannot reply to topics in this forum
You cannot edit your posts in this forum
You cannot delete your posts in this forum
You cannot vote in polls in this forum
You cannot attach files in this forum
You cannot download files in this forum