Человек Матрицы (серии 1-7 из 7) (Семён Винокур, Евгений Литварь) [2009-2011, телепередача, WEB-DL Rip 720p]

Reply to topic
 
Author
Message

krasyarBB ®

Gender: Unknown

Longevity: 8 years 2 months

Posts: 32

Reputation: 0 [+] [-]

krasyarBB · Post 09-May-2013 16:35

[Quote] 

Человек Матрицы / серии 1-7 из 7 -Год выпуска: 2009-2011
Страна: Россия, Израиль
Производство: Ari Films
Жанр: телепередача
Продолжительность: 03:23:34
Перевод: оригинал (русский язык)
Субтитры: нет-В ролях: Михаэль Лайтман, Евгений Литварь, Михаил Санилевич
Режиссёры: Семён Винокур, Евгений Литварь-Описание: «Человек Матрицы». Почему «Матрицы»? Все видели прекрасный фильм – «Матрица», который довольно интересно поведал нам о том, что мы существуем внутри некой матрицы, что наш мир нереален.Мы с вами знаем, что все проистекает из причинно-следственной цепочки, существовавшей задолго до того, как мы родились в этом мире. Мы с вами это знаем, и живем как бы в другом измерении, точнее, мы живем по-другому. Но шесть с половиной миллиардов человек продолжают мучиться.-Качество: WEB-DL Rip 720p
Формат: MP4
Видео кодек: MPEG-4 AVC (H.264)
Аудио кодек: AAC
Видео: 1280 x 720, 25,000 fps, ~ 1150 Kbps, ~ 0.050 bit/pixel
Аудио: 44,1 kHz, 2 (L,R) ch, ~ 150 kb/s
СЭМПЛ-Аудиоверсия телепередачи Человек Матрицы / выпуски 1-7 из 7
-

Скриншоты

Расскадровка

MediaInfo

Общее
Полное имя : Chelovek_matricy\Человек матрицы № 01.mp4
Формат : MPEG-4
Профиль формата : Base Media / Version 2
Идентификатор кодека : mp42
Размер файла : 228 Мбайт
Продолжительность : 25 м.
Режим общего битрейта : Переменный
Общий поток : 1236 Кбит/сек
Дата кодирования : UTC 2012-08-16 14:35:15
Дата пометки : UTC 2012-08-16 14:35:15
gsst : 0
gstd : 1545148
gssd : B4A7DDAE5MH1345255893327170
gshh : r5---fra07t18.c.youtube.com
Видео
Идентификатор : 1
Формат : AVC
Формат/Информация : Advanced Video Codec
Профиль формата : High@L3.1
Параметр CABAC формата : Да
Параметр ReFrames формата : 1 кадр
Идентификатор кодека : avc1
Идентификатор кодека/Информация : Advanced Video Coding
Продолжительность : 25 м.
Битрейт : 1042 Кбит/сек
Максимальный битрейт : 2822 Кбит/сек
Ширина : 1280 пикселей
Высота : 720 пикселей
Соотношение сторон : 16:9
Режим частоты кадров : Постоянный
Частота кадров : 25,000 кадров/сек
Цветовое пространство : YUV
Субдискретизация насыщенности : 4:2:0
Битовая глубина : 8 бит
Тип развёртки : Прогрессивная
Бит/(Пиксели*Кадры) : 0.045
Размер потока : 192 Мбайт (84%)
Дата пометки : UTC 2012-08-16 14:35:36
Аудио
Идентификатор : 2
Формат : AAC
Формат/Информация : Advanced Audio Codec
Профиль формата : LC
Идентификатор кодека : 40
Продолжительность : 25 м.
Вид битрейта : Переменный
Битрейт : 192 Кбит/сек
Максимальный битрейт : 201 Кбит/сек
Каналы : 2 канала
Расположение каналов : Front: L R
Частота : 44,1 КГц
Метод сжатия : С потерями
Размер потока : 35,4 Мбайт (16%)
Заголовок : IsoMedia File Produced by Google, 5-11-2011
Дата кодирования : UTC 2012-08-16 14:35:31
Дата пометки : UTC 2012-08-16 14:35:36

Список серий

01. Человек матрицы № 01 (25:45)
02. Человек матрицы № 02 (25:45)
03. Человек матрицы № 03 (25:45)
04. Человек матрицы № 04 (26:38)
05. Человек матрицы № 05 (35:53)
06. Человек матрицы № 06 (23:17)
07. Человек матрицы № 07 (40:32)
[Profile]  [PM] 
Display posts:    
Reply to topic

Current time is: 25-May 19:10

All times are UTC + 2



You cannot post new topics in this forum
You cannot reply to topics in this forum
You cannot edit your posts in this forum
You cannot delete your posts in this forum
You cannot vote in polls in this forum
You cannot attach files in this forum
You cannot download files in this forum