(Шансон) Андрей Бандера - Женщине, которую не встретил (Полная версия) - 2009, APE (image + .cue), lossless

Reply to topic
 
Author
Message

STOJAK ®

Gender: Unknown

Longevity: 11 years

Posts: 21

Reputation: 0 [+] [-]

Location: Москва

STOJAK · Post 17-Oct-2009 16:31

[Quote] 

Андрей Бандера - Женщине, которую не встретил (Полная версия)
Страна: Россия
Жанр: Шансон
Год выпуска: 2009
Формат: APE (image + .cue)
Битрейт аудио: lossless
Продолжительность: 01:17:47
Трэклист:

01. "Женщине,которую не встретил"
02. "Не любить невозможно"
03. "Закружится"
04. "Клён"
05. "Ивушки"
06. "Ты лети, моя душа"
07. "Горлинка"
08. "Тишина"
09. "Лебединая душа"
10. "Метелица"
11. "Любимая"
12. "Ночка"
13. "Огонек любви"
14. "Поля России"
15. "Ручеек"
16. "Я хочу обвенчаться с тобой"
17. "А помнишь?"
18. "Русь"
19. "Самая желанная"
20. "Голуби"
21. "Соловьи"


Отчёт EAC об извлечении, выполненном 15. октября 2009, 20:44:
Exact Audio Copy V0.99 prebeta 3 from 28. July 2007
Отчёт EAC об извлечении, выполненном 15. октября 2009, 20:44
АНДРЕЙ БАНДЕРА / "Женщине,которую не встретил"
Дисковод: Optiarc DVD RW AD-7190A Adapter: 0 ID: 0
Режим чтения : Достоверность
Использование точного потока : Да
Отключение кэша аудио : Да
Использование указателей C2 : Нет
Коррекция смещения при чтении : 6
Способность читать области Lead-in и Lead-out : Нет
Заполнение пропущенных сэмплов тишиной : Да
Удаление блоков с тишиной в начале и конце : Нет
При вычислениях CRC использовались нулевые сэмплы : Да
Интерфейс : Встроенный Win32-интерфейс для Win NT/2000
Выходной формат : Внутренние WAV-операции
Формат сэмплов : 44.100 Гц; 16 бит; стерео
TOC извлечённого CD
Трек | Старт | Длительность | Начальный сектор | Конечный сектор
---------------------------------------------------------------------
1 | 0:00.00 | 2:03.36 | 0 | 9260
2 | 2:03.36 | 2:59.24 | 9261 | 22709
3 | 5:02.60 | 4:03.15 | 22710 | 40949
4 | 9:06.00 | 2:58.38 | 40950 | 54337
5 | 12:04.38 | 4:07.28 | 54338 | 72890
6 | 16:11.66 | 4:09.08 | 72891 | 91573
7 | 20:20.74 | 4:51.46 | 91574 | 113444
8 | 25:12.45 | 3:29.70 | 113445 | 129189
9 | 28:42.40 | 4:18.57 | 129190 | 148596
10 | 33:01.22 | 3:38.54 | 148597 | 165000
11 | 36:40.01 | 3:52.33 | 165001 | 182433
12 | 40:32.34 | 3:23.32 | 182434 | 197690
13 | 43:55.66 | 4:48.67 | 197691 | 219357
14 | 48:44.58 | 3:48.28 | 219358 | 236485
15 | 52:33.11 | 3:38.73 | 236486 | 252908
16 | 56:12.09 | 3:34.67 | 252909 | 269025
17 | 59:47.01 | 3:11.27 | 269026 | 283377
18 | 62:58.28 | 4:10.33 | 283378 | 302160
19 | 67:08.61 | 3:52.66 | 302161 | 319626
20 | 71:01.52 | 3:27.68 | 319627 | 335219
21 | 74:29.45 | 3:17.51 | 335220 | 350045
Характеристики диапазона извлечения и сообщения об ошибках
Выбранный диапазон
Имя файла E:\БАНДЕРА АНДРЕЙ © [Дискография]\БАНДЕРА АНДРЕЙ © 2009 [Женщине ,которую не встретил]\АНДРЕЙ БАНДЕРА - Женщине,которую не встретил.wav
Пиковый уровень 99.6 %
Качество диапазона 100.0 %
CRC копии 829AE17B
Копирование... OK
Ошибок не произошло
AccurateRip: сводка
Трек 1 нет в базе данных
Трек 2 нет в базе данных
Трек 3 нет в базе данных
Трек 4 нет в базе данных
Трек 5 нет в базе данных
Трек 6 нет в базе данных
Трек 7 нет в базе данных
Трек 8 нет в базе данных
Трек 9 нет в базе данных
Трек 10 нет в базе данных
Трек 11 нет в базе данных
Трек 12 нет в базе данных
Трек 13 нет в базе данных
Трек 14 нет в базе данных
Трек 15 нет в базе данных
Трек 16 нет в базе данных
Трек 17 нет в базе данных
Трек 18 нет в базе данных
Трек 19 нет в базе данных
Трек 20 нет в базе данных
Трек 21 нет в базе данных
Ни одного трека нет в базе AccurateRip
Конец отчёта


Last edited by STOJAK on 2009-10-18 16:59; edited 1 time in total
[Profile]  [PM] 
Display posts:    
Reply to topic

Current time is: 14-Jun 07:56

All times are UTC + 2



You cannot post new topics in this forum
You cannot reply to topics in this forum
You cannot edit your posts in this forum
You cannot delete your posts in this forum
You cannot vote in polls in this forum
You cannot attach files in this forum
You cannot download files in this forum