(Rock) Кино - 15CD, FLAC (image+.cue), lossless

Reply to topic
 
Author
Message

mario-OS ®

Gender: Male

Longevity: 11 years

Posts: 575

Reputation: 31 [+] [-]

Location: ...из страны, где шлюха стоит всего лишь доллар, солнце всегда и везде (с)

mario-OS · Post 10-Dec-2009 21:56

[Quote] 

Кино - 15CD- Жанр: Rock
Год выпуска диска: 1982-2002
Производитель диска: Россия
Аудио кодек: FLAC
Тип рипа: image+.cue, covers
Битрейт аудио: lossless
Продолжительность: 15 CD
Albums:

1982 - 45 (1996, MOROZ, MR 96146)

Треклист:
01. Время есть, а денег нет (4:08)
02. Просто хочешь ты знать (3:29)
03. Аллюминиевые огурцы (2:57)
04. Солнечные дни (3:13)
05. Бездельник (3:14)
06. Бездельник 2 (3:06)
07. Электричка (2:37)
08. Восьмиклассница (2:45)
09. Мои друзья (4:27)
10. Ситар играл (1:34)
11. Дерево (1:44)
12. Когда-то ты был битником (3:41)
13. На кухне (3:04)
14. Я - асфальт (3:10)
Общее время: 43:07

LOG EAC

Exact Audio Copy V0.99 prebeta 4 from 23. January 2008
Отчёт EAC об извлечении, выполненном 14. февраля 2009, 0:55
Кино / 45
Дисковод: Optiarc DVD RW AD-7203S Adapter: 3 ID: 0
Режим чтения : Достоверность
Использование точного потока : Да
Отключение кэша аудио : Да
Использование указателей C2 : Нет
Коррекция смещения при чтении : 48
Способность читать области Lead-in и Lead-out : Нет
Заполнение пропущенных сэмплов тишиной : Да
Удаление блоков с тишиной в начале и конце : Нет
При вычислениях CRC использовались нулевые сэмплы : Да
Интерфейс : Установленный внешний ASPI-интерфейс
Выходной формат : Внутренние WAV-операции
Формат сэмплов : 44.100 Гц; 16 бит; стерео
TOC извлечённого CD
Трек | Старт | Длительность | Начальный сектор | Конечный сектор
---------------------------------------------------------------------
1 | 0:00.00 | 4:07.52 | 0 | 18576
2 | 4:07.52 | 3:28.67 | 18577 | 34243
3 | 7:36.44 | 2:56.40 | 34244 | 47483
4 | 10:33.09 | 3:12.44 | 47484 | 61927
5 | 13:45.53 | 3:13.67 | 61928 | 76469
6 | 16:59.45 | 3:06.02 | 76470 | 90421
7 | 20:05.47 | 2:36.43 | 90422 | 102164
8 | 22:42.15 | 2:45.05 | 102165 | 114544
9 | 25:27.20 | 4:26.64 | 114545 | 134558
10 | 29:54.09 | 1:34.25 | 134559 | 141633
11 | 31:28.34 | 1:43.48 | 141634 | 149406
12 | 33:12.07 | 3:41.22 | 149407 | 166003
13 | 36:53.29 | 3:03.70 | 166004 | 179798
14 | 39:57.24 | 3:10.04 | 179799 | 194052
Характеристики диапазона извлечения и сообщения об ошибках
Выбранный диапазон
Имя файла G:\Кино\1982 - 45 (1996, MOROZ, MR 96146)\Кино - 45.wav
Пиковый уровень 100.0 %
Качество диапазона 100.0 %
CRC теста 62A447F5
CRC копии 62A447F5
Копирование... OK
Ошибок не произошло
AccurateRip: сводка
Трек 1 нет в базе данных
Трек 2 нет в базе данных
Трек 3 нет в базе данных
Трек 4 нет в базе данных
Трек 5 нет в базе данных
Трек 6 нет в базе данных
Трек 7 нет в базе данных
Трек 8 нет в базе данных
Трек 9 нет в базе данных
Трек 10 нет в базе данных
Трек 11 нет в базе данных
Трек 12 нет в базе данных
Трек 13 нет в базе данных
Трек 14 нет в базе данных
Ни одного трека нет в базе AccurateRip
Конец отчёта

1982 - Неизвестные песни (1996, MOROZ, MR 96149)

Треклист:
01. Разреши мне... (4:09)
02. Братская любовь (3:32)
03. Ты мог бы... (3:34)
04. Любовь - это не шутка (5:08)
05. Ты обвела меня вокруг пальца (3:01)
06. В поисках сюжета (1:00)
07. Весна (2:25)
08. Последний герой (2:42)
09. Около семи утра (3:27)
10. Лето (1:46)
11. Мне не нравится город Москва (3:47)
12. Скоро будет зима (2:17)
13. Далеко-далеко (2:29)
14. Железнодорожная вода (3:38)
15. Городской мотылек (2:54)
Общее время: 45:50

LOG EAC

Exact Audio Copy V0.99 prebeta 4 from 23. January 2008
Отчёт EAC об извлечении, выполненном 14. февраля 2009, 1:58
Кино / Неизвестные песни
Дисковод: Optiarc DVD RW AD-7203S Adapter: 3 ID: 0
Режим чтения : Достоверность
Использование точного потока : Да
Отключение кэша аудио : Да
Использование указателей C2 : Нет
Коррекция смещения при чтении : 48
Способность читать области Lead-in и Lead-out : Нет
Заполнение пропущенных сэмплов тишиной : Да
Удаление блоков с тишиной в начале и конце : Нет
При вычислениях CRC использовались нулевые сэмплы : Да
Интерфейс : Установленный внешний ASPI-интерфейс
Выходной формат : Внутренние WAV-операции
Формат сэмплов : 44.100 Гц; 16 бит; стерео
TOC извлечённого CD
Трек | Старт | Длительность | Начальный сектор | Конечный сектор
---------------------------------------------------------------------
1 | 0:00.00 | 4:08.39 | 0 | 18638
2 | 4:08.39 | 3:32.12 | 18639 | 34550
3 | 7:40.51 | 3:34.02 | 34551 | 50602
4 | 11:14.53 | 5:07.62 | 50603 | 73689
5 | 16:22.40 | 3:01.28 | 73690 | 87292
6 | 19:23.68 | 1:00.05 | 87293 | 91797
7 | 20:23.73 | 2:24.74 | 91798 | 102671
8 | 22:48.72 | 2:41.49 | 102672 | 114795
9 | 25:30.46 | 3:26.62 | 114796 | 130307
10 | 28:57.33 | 1:46.20 | 130308 | 138277
11 | 30:43.53 | 3:47.06 | 138278 | 155308
12 | 34:30.59 | 2:17.26 | 155309 | 165609
13 | 36:48.10 | 2:28.57 | 165610 | 176766
14 | 39:16.67 | 3:38.15 | 176767 | 193131
15 | 42:55.07 | 2:54.32 | 193132 | 206213
Характеристики диапазона извлечения и сообщения об ошибках
Выбранный диапазон
Имя файла G:\Кино\1982 - Неизвестные песни (1996, MOROZ, MR 96149)\Кино - Неизвестные песни.wav
Пиковый уровень 100.0 %
Качество диапазона 100.0 %
CRC теста 04F8CCF8
CRC копии 04F8CCF8
Копирование... OK
Ошибок не произошло
AccurateRip: сводка
Трек 1 нет в базе данных
Трек 2 нет в базе данных
Трек 3 нет в базе данных
Трек 4 нет в базе данных
Трек 5 нет в базе данных
Трек 6 нет в базе данных
Трек 7 нет в базе данных
Трек 8 нет в базе данных
Трек 9 нет в базе данных
Трек 10 нет в базе данных
Трек 11 нет в базе данных
Трек 12 нет в базе данных
Трек 13 нет в базе данных
Трек 14 нет в базе данных
Трек 15 нет в базе данных
Ни одного трека нет в базе AccurateRip
Конец отчёта

1983 - 46 (1996, MOROZ, MR 96147)

Треклист:
01. Троллейбус (2:51)
02. Камчатка (2:11)
03. Транквиллизатор (5:29)
04. Я иду по улице (2:01)
05. Дождь для нас (3:27)
06. Пора (1:47)
07. Каждую ночь (2:48)
08. Без десяти (2:07)
09. Музыка волн (2:46)
10. Саша (4:06)
11. Хочу быть с тобой (2:21)
12. Генерал (4:06)
13. Стань птицей (2:10)
14. Сельва (2:49)
15. Я хочу быть кочегаром (1:04)
Общее время: 42:04

LOG EAC

Exact Audio Copy V0.99 prebeta 4 from 23. January 2008
Отчёт EAC об извлечении, выполненном 14. февраля 2009, 2:39
Кино / 46
Дисковод: Optiarc DVD RW AD-7203S Adapter: 3 ID: 0
Режим чтения : Достоверность
Использование точного потока : Да
Отключение кэша аудио : Да
Использование указателей C2 : Нет
Коррекция смещения при чтении : 48
Способность читать области Lead-in и Lead-out : Нет
Заполнение пропущенных сэмплов тишиной : Да
Удаление блоков с тишиной в начале и конце : Нет
При вычислениях CRC использовались нулевые сэмплы : Да
Интерфейс : Установленный внешний ASPI-интерфейс
Выходной формат : Внутренние WAV-операции
Формат сэмплов : 44.100 Гц; 16 бит; стерео
TOC извлечённого CD
Трек | Старт | Длительность | Начальный сектор | Конечный сектор
---------------------------------------------------------------------
1 | 0:00.55 | 2:50.46 | 55 | 12850
2 | 2:51.26 | 2:11.23 | 12851 | 22698
3 | 5:02.49 | 5:28.57 | 22699 | 47355
4 | 10:31.31 | 2:00.72 | 47356 | 56427
5 | 12:32.28 | 3:27.01 | 56428 | 71953
6 | 15:59.29 | 1:47.33 | 71954 | 80011
7 | 17:46.62 | 2:48.37 | 80012 | 92648
8 | 20:35.24 | 2:07.09 | 92649 | 102182
9 | 22:42.33 | 2:46.22 | 102183 | 114654
10 | 25:28.55 | 4:06.07 | 114655 | 133111
11 | 29:34.62 | 2:21.05 | 133112 | 143691
12 | 31:55.67 | 4:05.47 | 143692 | 162113
13 | 36:01.39 | 2:09.51 | 162114 | 171839
14 | 38:11.15 | 2:49.17 | 171840 | 184531
15 | 41:00.32 | 1:03.62 | 184532 | 189318
Характеристики диапазона извлечения и сообщения об ошибках
Выбранный диапазон
Имя файла G:\Кино\1983 - 46 (1996, MOROZ, MR 96147)\Кино - 46.wav
Пиковый уровень 85.6 %
Качество диапазона 100.0 %
CRC теста 3258CC85
CRC копии 3258CC85
Копирование... OK
Ошибок не произошло
AccurateRip: сводка
Трек 1 нет в базе данных
Трек 2 нет в базе данных
Трек 3 нет в базе данных
Трек 4 нет в базе данных
Трек 5 нет в базе данных
Трек 6 нет в базе данных
Трек 7 нет в базе данных
Трек 8 нет в базе данных
Трек 9 нет в базе данных
Трек 10 нет в базе данных
Трек 11 нет в базе данных
Трек 12 нет в базе данных
Трек 13 нет в базе данных
Трек 14 нет в базе данных
Трек 15 нет в базе данных
Ни одного трека нет в базе AccurateRip
Конец отчёта

1984 - Начальник Камчатки (1996, MOROZ, MR 96148)

Треклист:
01. Последний герой (2:53)
02. Каждую ночь (2:59)
03. Транквилизатор (5:34)
04. Сюжет для новой песни (2:10)
05. Гость (3:57)
06. Камчатка (2:52)
07. Ария мистера X (2:16)
08. Троллейбус (2:23)
09. Растопите снег (1:50)
10. Дождь для нас (3:18)
11. Хочу быть с тобой (2:26)
12. Генерал (3:26)
13. Прогулка романтика (3:35)
14. Танкисты (3:42)
15. Анаша (0:37)
16. Постой, паровоз (2:57)
Общее время: 46:54

LOG EAC

Exact Audio Copy V0.99 prebeta 4 from 23. January 2008
Отчёт EAC об извлечении, выполненном 15. февраля 2009, 20:30
Кино / Начальник Камчатки
Дисковод: Optiarc DVD RW AD-7203S Adapter: 3 ID: 0
Режим чтения : Достоверность
Использование точного потока : Да
Отключение кэша аудио : Да
Использование указателей C2 : Нет
Коррекция смещения при чтении : 48
Способность читать области Lead-in и Lead-out : Нет
Заполнение пропущенных сэмплов тишиной : Да
Удаление блоков с тишиной в начале и конце : Нет
При вычислениях CRC использовались нулевые сэмплы : Да
Интерфейс : Установленный внешний ASPI-интерфейс
Выходной формат : Внутренние WAV-операции
Формат сэмплов : 44.100 Гц; 16 бит; стерео
TOC извлечённого CD
Трек | Старт | Длительность | Начальный сектор | Конечный сектор
---------------------------------------------------------------------
1 | 0:00.00 | 2:53.14 | 0 | 12988
2 | 2:53.14 | 2:58.46 | 12989 | 26384
3 | 5:51.60 | 5:33.55 | 26385 | 51414
4 | 11:25.40 | 2:10.23 | 51415 | 61187
5 | 13:35.63 | 3:56.41 | 61188 | 78928
6 | 17:32.29 | 2:51.51 | 78929 | 91804
7 | 20:24.05 | 2:15.61 | 91805 | 101990
8 | 22:39.66 | 2:22.47 | 101991 | 112687
9 | 25:02.38 | 1:50.23 | 112688 | 120960
10 | 26:52.61 | 3:18.02 | 120961 | 135812
11 | 30:10.63 | 2:26.01 | 135813 | 146763
12 | 32:36.64 | 3:25.49 | 146764 | 162187
13 | 36:02.38 | 3:35.30 | 162188 | 178342
14 | 39:37.68 | 3:42.28 | 178343 | 195020
15 | 43:20.21 | 0:37.37 | 195021 | 197832
16 | 43:57.58 | 2:56.44 | 197833 | 211076
Характеристики диапазона извлечения и сообщения об ошибках
Выбранный диапазон
Имя файла G:\Кино\1984 - Начальник Камчатки (1996, MOROZ, MR 96148)\Кино - Начальник Камчатки.wav
Пиковый уровень 100.0 %
Качество диапазона 100.0 %
CRC теста F302917E
CRC копии F302917E
Копирование... OK
Ошибок не произошло
Конец отчёта

1985 - Концерт в Рок-клубе 1 (1998, MOROZ, dMR 01898)

Треклист:
01. Вступление (3:42)
02. Гость (4:09)
03. Видели ночь (3:28)
04. Троллейбус (2:31)
05. Танец (4:55)
06. Фильмы (5:21)
07. Жизнь в стеклах (4:05)
08. Безъядерная зона (2:30)
09. Ночь (5:41)
10. Звезды останутся здесь (4:02)
11. Транквилизатор (5:40)
12. Растопите снег (2:53)
13. Генерал (4:04)
14. Прогулка романтика (4:37)
15. Время есть, а денег нет (3:41)
16. Электричка (3:00)
Общее время: 64:19

LOG EAC

Exact Audio Copy V0.99 prebeta 4 from 23. January 2008
Отчёт EAC об извлечении, выполненном 16. февраля 2009, 14:24
Кино / Концерт в Рок-клубе (CD1)
Дисковод: Optiarc DVD RW AD-7203S Adapter: 3 ID: 0
Режим чтения : Достоверность
Использование точного потока : Да
Отключение кэша аудио : Да
Использование указателей C2 : Нет
Коррекция смещения при чтении : 48
Способность читать области Lead-in и Lead-out : Нет
Заполнение пропущенных сэмплов тишиной : Да
Удаление блоков с тишиной в начале и конце : Нет
При вычислениях CRC использовались нулевые сэмплы : Да
Интерфейс : Установленный внешний ASPI-интерфейс
Выходной формат : Внутренние WAV-операции
Формат сэмплов : 44.100 Гц; 16 бит; стерео
TOC извлечённого CD
Трек | Старт | Длительность | Начальный сектор | Конечный сектор
---------------------------------------------------------------------
1 | 0:00.00 | 3:41.58 | 0 | 16632
2 | 3:41.58 | 4:08.43 | 16633 | 35275
3 | 7:50.26 | 3:28.12 | 35276 | 50887
4 | 11:18.38 | 2:30.50 | 50888 | 62187
5 | 13:49.13 | 4:54.48 | 62188 | 84285
6 | 18:43.61 | 5:21.23 | 84286 | 108383
7 | 24:05.09 | 4:05.07 | 108384 | 126765
8 | 28:10.16 | 2:30.14 | 126766 | 138029
9 | 30:40.30 | 5:41.13 | 138030 | 163617
10 | 36:21.43 | 4:01.40 | 163618 | 181732
11 | 40:23.08 | 5:40.17 | 181733 | 207249
12 | 46:03.25 | 2:52.73 | 207250 | 220222
13 | 48:56.23 | 4:04.22 | 220223 | 238544
14 | 53:00.45 | 4:37.30 | 238545 | 259349
15 | 57:38.00 | 3:41.30 | 259350 | 275954
16 | 61:19.30 | 2:59.51 | 275955 | 289430
Характеристики диапазона извлечения и сообщения об ошибках
Выбранный диапазон
Имя файла G:\Кино\1985 - Концерт в Рок-клубе 1 (1998, MOROZ, dMR 01898)\Кино - Концерт в Рок-клубе (CD1).wav
Пиковый уровень 100.0 %
Качество диапазона 100.0 %
CRC теста B65E5E8F
CRC копии B65E5E8F
Копирование... OK
Ошибок не произошло
Конец отчёта

1985 - Концерт в Рок-клубе 2 (1998, MOROZ, dMR 02598)

Треклист:
01. Вступление (0:30)
02. Транквилизатор (6:12)
03. Следи за собой (4:43)
04. Электричка (4:04)
05. Это не любовь (4:03)
06. Спокойная ночь (5:58)
07. Хочу перемен (5:39)
08. Время есть а денег нет (3:04)
09. Танцуй со мной (7:06)
10. Алюминиевые огурцы (2:23)
Общее время: 43:43

LOG EAC

Exact Audio Copy V0.99 prebeta 4 from 23. January 2008
Отчёт EAC об извлечении, выполненном 16. февраля 2009, 15:09
Кино / Концерт в Рок-клубе (CD2)
Дисковод: Optiarc DVD RW AD-7203S Adapter: 3 ID: 0
Режим чтения : Достоверность
Использование точного потока : Да
Отключение кэша аудио : Да
Использование указателей C2 : Нет
Коррекция смещения при чтении : 48
Способность читать области Lead-in и Lead-out : Нет
Заполнение пропущенных сэмплов тишиной : Да
Удаление блоков с тишиной в начале и конце : Нет
При вычислениях CRC использовались нулевые сэмплы : Да
Интерфейс : Установленный внешний ASPI-интерфейс
Выходной формат : Внутренние WAV-операции
Формат сэмплов : 44.100 Гц; 16 бит; стерео
TOC извлечённого CD
Трек | Старт | Длительность | Начальный сектор | Конечный сектор
---------------------------------------------------------------------
1 | 0:00.00 | 0:29.42 | 0 | 2216
2 | 0:29.42 | 6:12.32 | 2217 | 30148
3 | 6:41.74 | 4:42.72 | 30149 | 51370
4 | 11:24.71 | 4:04.23 | 51371 | 69693
5 | 15:29.19 | 4:03.21 | 69694 | 87939
6 | 19:32.40 | 5:58.13 | 87940 | 114802
7 | 25:30.53 | 5:38.66 | 114803 | 140218
8 | 31:09.44 | 3:03.64 | 140219 | 154007
9 | 34:13.33 | 7:05.49 | 154008 | 185931
10 | 41:19.07 | 2:23.34 | 185932 | 196690
Характеристики диапазона извлечения и сообщения об ошибках
Выбранный диапазон
Имя файла G:\Кино\1985 - Концерт в Рок-клубе 2 (1998, MOROZ, dMR 02598)\Кино - Концерт в Рок-клубе (CD2).wav
Пиковый уровень 100.0 %
Качество диапазона 100.0 %
CRC теста B7C4DBFB
CRC копии B7C4DBFB
Копирование... OK
Ошибок не произошло
Конец отчёта

1985 - Это не любовь... (1996, MOROZ, MR 96151)

Треклист:
01. Это не любовь (3:28)
02. Весна (2:00)
03. Уходи (4:37)
04. Город (3:44)
05. Проснись (3:32)
06. Рядом со мной (3:51)
07. Я обявляю свой дом (2:22)
08. Саша (3:16)
09. Верь мне (5:33)
10. Дети проходных дворов (1:46)
11. Музыка волн (4:10)
12. Разреши мне... (4:21)
13. стишок (0:13)
14. Прохожий (3:34)
Общее время: 46:30

LOG EAC

Exact Audio Copy V0.99 prebeta 4 from 23. January 2008
Отчёт EAC об извлечении, выполненном 14. февраля 2009, 22:30
Кино / Это не любовь
Дисковод: Optiarc DVD RW AD-7203S Adapter: 3 ID: 0
Режим чтения : Достоверность
Использование точного потока : Да
Отключение кэша аудио : Да
Использование указателей C2 : Нет
Коррекция смещения при чтении : 48
Способность читать области Lead-in и Lead-out : Нет
Заполнение пропущенных сэмплов тишиной : Да
Удаление блоков с тишиной в начале и конце : Нет
При вычислениях CRC использовались нулевые сэмплы : Да
Интерфейс : Установленный внешний ASPI-интерфейс
Выходной формат : Внутренние WAV-операции
Формат сэмплов : 44.100 Гц; 16 бит; стерео
TOC извлечённого CD
Трек | Старт | Длительность | Начальный сектор | Конечный сектор
---------------------------------------------------------------------
1 | 0:00.00 | 3:28.29 | 0 | 15628
2 | 3:28.29 | 2:00.34 | 15629 | 24662
3 | 5:28.63 | 4:36.58 | 24663 | 45420
4 | 10:05.46 | 3:44.23 | 45421 | 62243
5 | 13:49.69 | 3:31.62 | 62244 | 78130
6 | 17:21.56 | 3:51.10 | 78131 | 95465
7 | 21:12.66 | 2:22.36 | 95466 | 106151
8 | 23:35.27 | 3:16.33 | 106152 | 120884
9 | 26:51.60 | 5:33.25 | 120885 | 145884
10 | 32:25.10 | 1:46.13 | 145885 | 153847
11 | 34:11.23 | 4:10.34 | 153848 | 172631
12 | 38:21.57 | 4:21.20 | 172632 | 192226
13 | 42:43.02 | 0:13.03 | 192227 | 193204
14 | 42:56.05 | 3:34.18 | 193205 | 209272
Характеристики диапазона извлечения и сообщения об ошибках
Выбранный диапазон
Имя файла G:\Кино\1985 - Это не любовь... (1996, MOROZ, MR 96151)\Кино - Это не любовь.wav
Пиковый уровень 100.0 %
Качество диапазона 99.9 %
CRC теста 1B2184CF
CRC копии 1B2184CF
Копирование... OK
Ошибок не произошло
AccurateRip: сводка
Трек 1 точность не определена (достоверность 1) [631BA1E9], AccurateRip вернул [C98FEBB9]
Трек 2 точность не определена (достоверность 1) [942CB8AC], AccurateRip вернул [F6742FFD]
Трек 3 точность не определена (достоверность 1) [9742C59C], AccurateRip вернул [1E33A0DF]
Трек 4 точность не определена (достоверность 1) [1F020231], AccurateRip вернул [0E1FEFC6]
Трек 5 точность не определена (достоверность 1) [AC6DB401], AccurateRip вернул [2B38F0D5]
Трек 6 точность не определена (достоверность 1) [71C0FF9E], AccurateRip вернул [93E53F68]
Трек 7 точность не определена (достоверность 1) [28B91806], AccurateRip вернул [CF66A1B7]
Трек 8 точность не определена (достоверность 1) [02ED57E4], AccurateRip вернул [0D346149]
Трек 9 точность не определена (достоверность 1) [18A03E91], AccurateRip вернул [CB56B5D5]
Трек 10 точность не определена (достоверность 1) [7D339FB4], AccurateRip вернул [3CB82D00]
Трек 11 точность не определена (достоверность 1) [A31E58BC], AccurateRip вернул [B824D678]
Трек 12 точность не определена (достоверность 1) [93B7C1C9], AccurateRip вернул [6722D320]
Трек 13 точность не определена (достоверность 1) [11D24D23], AccurateRip вернул [180D81A0]
Трек 14 точность не определена (достоверность 1) [EA10851C], AccurateRip вернул [9FD4090F]
Ни один трек не прошёл проверки на точность
В вашей базе может быть иной вариант штамповки диска
Конец отчёта

1986 - Ночь (1996, MOROZ, MR 96150)

Треклист:
01. Видели ночь (3:09)
02. Фильмы (4:55)
03. Твой номер (3:29)
04. Танец (4:33)
05. Ночь (5:29)
06. Последний герой (2:16)
07. Жизнь в стеклах (3:23)
08. Мама Анархия (2:44)
09. Звезды останутся здесь (3:37)
10. Игра (5:01)
11. Мы хотим танцевать (4:09)
12. Попробуй спеть вместе со мной (5:26)
13. Закрой за мной дверь, я ухожу (4:01)
14. Дальше действовать будем мы (3:57)
15. Спокойная ночь (2:47)
Общее время: 58:55

LOG EAC

Exact Audio Copy V0.99 prebeta 4 from 23. January 2008
Отчёт EAC об извлечении, выполненном 14. февраля 2009, 23:28
Кино / Ночь
Дисковод: Optiarc DVD RW AD-7203S Adapter: 3 ID: 0
Режим чтения : Достоверность
Использование точного потока : Да
Отключение кэша аудио : Да
Использование указателей C2 : Нет
Коррекция смещения при чтении : 48
Способность читать области Lead-in и Lead-out : Нет
Заполнение пропущенных сэмплов тишиной : Да
Удаление блоков с тишиной в начале и конце : Нет
При вычислениях CRC использовались нулевые сэмплы : Да
Интерфейс : Установленный внешний ASPI-интерфейс
Выходной формат : Внутренние WAV-операции
Формат сэмплов : 44.100 Гц; 16 бит; стерео
TOC извлечённого CD
Трек | Старт | Длительность | Начальный сектор | Конечный сектор
---------------------------------------------------------------------
1 | 0:00.00 | 3:08.48 | 0 | 14147
2 | 3:08.48 | 4:54.55 | 14148 | 36252
3 | 8:03.28 | 3:29.02 | 36253 | 51929
4 | 11:32.30 | 4:33.31 | 51930 | 72435
5 | 16:05.61 | 5:29.14 | 72436 | 97124
6 | 21:35.00 | 2:15.49 | 97125 | 107298
7 | 23:50.49 | 3:22.41 | 107299 | 122489
8 | 27:13.15 | 2:44.33 | 122490 | 134822
9 | 29:57.48 | 3:37.18 | 134823 | 151115
10 | 33:34.66 | 5:01.27 | 151116 | 173717
11 | 38:36.18 | 4:09.21 | 173718 | 192413
12 | 42:45.39 | 5:25.49 | 192414 | 216837
13 | 48:11.13 | 4:00.56 | 216838 | 234893
14 | 52:11.69 | 3:56.39 | 234894 | 252632
15 | 56:08.33 | 2:46.72 | 252633 | 265154
Характеристики диапазона извлечения и сообщения об ошибках
Выбранный диапазон
Имя файла G:\Кино\1986 - Ночь (1996, MOROZ, MR 96150)\Кино - Ночь.wav
Пиковый уровень 98.8 %
Качество диапазона 100.0 %
CRC теста E7D96415
CRC копии E7D96415
Копирование... OK
Ошибок не произошло
AccurateRip: сводка
Трек 1 точное извлечение (доверие 2) [435AC815]
Трек 2 точное извлечение (доверие 2) [02C27A0A]
Трек 3 точное извлечение (доверие 2) [FDF0AA75]
Трек 4 точное извлечение (доверие 2) [0C192020]
Трек 5 точное извлечение (доверие 2) [C6EAACE1]
Трек 6 точное извлечение (доверие 2) [CF1577E1]
Трек 7 точное извлечение (доверие 2) [D2FB6CF0]
Трек 8 точное извлечение (доверие 2) [2306EC28]
Трек 9 точное извлечение (доверие 2) [2097861D]
Трек 10 точное извлечение (доверие 2) [08C21F7E]
Трек 11 точное извлечение (доверие 2) [9F87704C]
Трек 12 точное извлечение (доверие 2) [DE3253C1]
Трек 13 точное извлечение (доверие 2) [DCAF7A68]
Трек 14 точное извлечение (доверие 2) [9B0DF3DD]
Трек 15 точное извлечение (доверие 2) [741BB1E9]
Все треки извлечены точно
Конец отчёта

1987 - Акустический концерт (1996, MOROZ, MR 96115)

Треклист:
01. Последний герой (2:31)
02. Каждую ночь (2:21)
03. Хочу перемен (4:11)
04. Алюминевые огурцы (2:20)
05. Солнечные дни (3:03)
06. Ты выглядишь так несовременно (3:04)
07. Попробуй спеть вместе со мной (3:33)
08. Транквилизатор (5:19)
09. Весна (2:08)
10. Лето (1:34)
11. Мама-Анархия (2:09)
12. Спокойная ночь (4:09)
13. Закрой за мной дверь (2:17)
14. Электричка (2:34)
15. Дальше действовать будем мы (2:53)
16. Генерал (3:35)
17. Это не любовь (3:22)
18. Уходи (3:28)
19. Безъядерная зона (2:43)
20. Мы хотим танцевать (2:42)
21. Музыка волн (2:40)
22. Восьмиклассница (2:00)
23. Город (3:09)
24. Троллейбус (2:48)
25. Камчатка (2:49)
Общее время: 73:24

LOG EAC

Exact Audio Copy V0.99 prebeta 4 from 23. January 2008
Отчёт EAC об извлечении, выполненном 15. февраля 2009, 14:17
Кино / Акустический концерт
Дисковод: Optiarc DVD RW AD-7203S Adapter: 3 ID: 0
Режим чтения : Достоверность
Использование точного потока : Да
Отключение кэша аудио : Да
Использование указателей C2 : Нет
Коррекция смещения при чтении : 48
Способность читать области Lead-in и Lead-out : Нет
Заполнение пропущенных сэмплов тишиной : Да
Удаление блоков с тишиной в начале и конце : Нет
При вычислениях CRC использовались нулевые сэмплы : Да
Интерфейс : Установленный внешний ASPI-интерфейс
Выходной формат : Внутренние WAV-операции
Формат сэмплов : 44.100 Гц; 16 бит; стерео
TOC извлечённого CD
Трек | Старт | Длительность | Начальный сектор | Конечный сектор
---------------------------------------------------------------------
1 | 0:00.00 | 2:31.21 | 0 | 11345
2 | 2:31.21 | 2:21.28 | 11346 | 21948
3 | 4:52.49 | 4:11.35 | 21949 | 40808
4 | 9:04.09 | 2:20.35 | 40809 | 51343
5 | 11:24.44 | 3:03.07 | 51344 | 65075
6 | 14:27.51 | 3:04.15 | 65076 | 78890
7 | 17:31.66 | 3:33.30 | 78891 | 94895
8 | 21:05.21 | 5:19.14 | 94896 | 118834
9 | 26:24.35 | 2:08.23 | 118835 | 128457
10 | 28:32.58 | 1:33.44 | 128458 | 135476
11 | 30:06.27 | 2:08.38 | 135477 | 145114
12 | 32:14.65 | 4:09.05 | 145115 | 163794
13 | 36:23.70 | 2:16.50 | 163795 | 174044
14 | 38:40.45 | 2:34.31 | 174045 | 185625
15 | 41:15.01 | 2:53.29 | 185626 | 198629
16 | 44:08.30 | 3:35.28 | 198630 | 214782
17 | 47:43.58 | 3:21.38 | 214783 | 229895
18 | 51:05.21 | 3:28.37 | 229896 | 245532
19 | 54:33.58 | 2:43.10 | 245533 | 257767
20 | 57:16.68 | 2:42.30 | 257768 | 269947
21 | 59:59.23 | 2:39.45 | 269948 | 281917
22 | 62:38.68 | 1:59.39 | 281918 | 290881
23 | 64:38.32 | 3:09.04 | 290882 | 305060
24 | 67:47.36 | 2:48.19 | 305061 | 317679
25 | 70:35.55 | 2:48.50 | 317680 | 330329
Характеристики диапазона извлечения и сообщения об ошибках
Выбранный диапазон
Имя файла G:\Кино\1987 - Акустический концерт (1996, MOROZ, MR 96115)\Кино - Акустический концерт.wav
Пиковый уровень 94.4 %
Качество диапазона 100.0 %
CRC теста D0F039DE
CRC копии D0F039DE
Копирование... OK
Ошибок не произошло
AccurateRip: сводка
Трек 1 нет в базе данных
Трек 2 нет в базе данных
Трек 3 нет в базе данных
Трек 4 нет в базе данных
Трек 5 нет в базе данных
Трек 6 нет в базе данных
Трек 7 нет в базе данных
Трек 8 нет в базе данных
Трек 9 нет в базе данных
Трек 10 нет в базе данных
Трек 11 нет в базе данных
Трек 12 нет в базе данных
Трек 13 нет в базе данных
Трек 14 нет в базе данных
Трек 15 нет в базе данных
Трек 16 нет в базе данных
Трек 17 нет в базе данных
Трек 18 нет в базе данных
Трек 19 нет в базе данных
Трек 20 нет в базе данных
Трек 21 нет в базе данных
Трек 22 нет в базе данных
Трек 23 нет в базе данных
Трек 24 нет в базе данных
Трек 25 нет в базе данных
Ни одного трека нет в базе AccurateRip
Конец отчёта

1988 - Группа крови (1996, MOROZ, MR 96097)

Треклист:
01. Группа крови (4:46)
02. Закрой за мной дверь, я ухожу (4:16)
03. Война (4:05)
04. Спокойная ночь (6:08)
05. Мама, мы все сошли с ума (4:07)
06. Бошетунмай (4:09)
07. В наших глазах (3:35)
08. Попробуй спеть вместе со мной (4:36)
09. Прохожий (3:39)
10. Дальше действовать будем мы (3:56)
11. Легенда (4:11)
Общее время: 47:30

LOG EAC

Exact Audio Copy V0.99 prebeta 4 from 23. January 2008
Отчёт EAC об извлечении, выполненном 15. февраля 2009, 15:11
Кино / Группа крови
Дисковод: Optiarc DVD RW AD-7203S Adapter: 3 ID: 0
Режим чтения : Достоверность
Использование точного потока : Да
Отключение кэша аудио : Да
Использование указателей C2 : Нет
Коррекция смещения при чтении : 48
Способность читать области Lead-in и Lead-out : Нет
Заполнение пропущенных сэмплов тишиной : Да
Удаление блоков с тишиной в начале и конце : Нет
При вычислениях CRC использовались нулевые сэмплы : Да
Интерфейс : Установленный внешний ASPI-интерфейс
Выходной формат : Внутренние WAV-операции
Формат сэмплов : 44.100 Гц; 16 бит; стерео
TOC извлечённого CD
Трек | Старт | Длительность | Начальный сектор | Конечный сектор
---------------------------------------------------------------------
1 | 0:00.00 | 4:45.49 | 0 | 21423
2 | 4:45.49 | 4:16.30 | 21424 | 40653
3 | 9:02.04 | 4:04.56 | 40654 | 59009
4 | 13:06.60 | 6:07.53 | 59010 | 86587
5 | 19:14.38 | 4:07.11 | 86588 | 105123
6 | 23:21.49 | 4:09.37 | 105124 | 123835
7 | 27:31.11 | 3:35.28 | 123836 | 139988
8 | 31:06.39 | 4:36.24 | 139989 | 160712
9 | 35:42.63 | 3:39.36 | 160713 | 177173
10 | 39:22.24 | 3:56.01 | 177174 | 194874
11 | 43:18.25 | 4:11.36 | 194875 | 213735
Характеристики диапазона извлечения и сообщения об ошибках
Выбранный диапазон
Имя файла G:\Кино\1988 - Группа крови (1996, MOROZ, MR 96097)\Кино - Группа крови.wav
Пиковый уровень 100.0 %
Качество диапазона 99.9 %
CRC теста D7CB737E
CRC копии D7CB737E
Копирование... OK
Ошибок не произошло
AccurateRip: сводка
Трек 1 точность не определена (достоверность 2) [13150CD2], AccurateRip вернул [B613AFD6]
Трек 2 точность не определена (достоверность 2) [C7B0829E], AccurateRip вернул [07BB8108]
Трек 3 точность не определена (достоверность 2) [C2101685], AccurateRip вернул [0195B78B]
Трек 4 точность не определена (достоверность 2) [2E5777C5], AccurateRip вернул [14E1EC55]
Трек 5 точность не определена (достоверность 2) [6E571ACC], AccurateRip вернул [5F395356]
Трек 6 точность не определена (достоверность 2) [6606322D], AccurateRip вернул [22B7619B]
Трек 7 точность не определена (достоверность 2) [519405A9], AccurateRip вернул [0B9AB37F]
Трек 8 точность не определена (достоверность 2) [0888650B], AccurateRip вернул [8DD58931]
Трек 9 точность не определена (достоверность 2) [ECA1D50C], AccurateRip вернул [AA01FB1A]
Трек 10 точность не определена (достоверность 2) [146338BD], AccurateRip вернул [CE3C308B]
Трек 11 точность не определена (достоверность 2) [B0F233F2], AccurateRip вернул [85720FFA]
Ни один трек не прошёл проверки на точность
В вашей базе может быть иной вариант штамповки диска
Конец отчёта

1989 - Звезда по имени Солнце (1996, MOROZ, MR 96098)

Треклист:
01. Песня без слов (5:07)
02. Звезда по имени Солнце (3:46)
03. Невеселая песня (4:19)
04. Сказка (5:59)
05. Место для шага вперед (3:40)
06. Пачка сигарет (4:29)
07. Стук (3:51)
08. Печаль (5:33)
09. Апрель (4:41)
Общее время: 41:25

LOG EAC

Exact Audio Copy V0.99 prebeta 4 from 23. January 2008
Отчёт EAC об извлечении, выполненном 15. февраля 2009, 21:11
Кино / Звезда по имени Солнце
Дисковод: Optiarc DVD RW AD-7203S Adapter: 3 ID: 0
Режим чтения : Достоверность
Использование точного потока : Да
Отключение кэша аудио : Да
Использование указателей C2 : Нет
Коррекция смещения при чтении : 48
Способность читать области Lead-in и Lead-out : Нет
Заполнение пропущенных сэмплов тишиной : Да
Удаление блоков с тишиной в начале и конце : Нет
При вычислениях CRC использовались нулевые сэмплы : Да
Интерфейс : Установленный внешний ASPI-интерфейс
Выходной формат : Внутренние WAV-операции
Формат сэмплов : 44.100 Гц; 16 бит; стерео
TOC извлечённого CD
Трек | Старт | Длительность | Начальный сектор | Конечный сектор
---------------------------------------------------------------------
1 | 0:00.00 | 5:07.04 | 0 | 23028
2 | 5:07.04 | 3:46.10 | 23029 | 39988
3 | 8:53.14 | 4:18.61 | 39989 | 59399
4 | 13:12.00 | 5:59.06 | 59400 | 86330
5 | 19:11.06 | 3:40.15 | 86331 | 102845
6 | 22:51.21 | 4:28.72 | 102846 | 123017
7 | 27:20.18 | 3:51.10 | 123018 | 140352
8 | 31:11.28 | 5:32.64 | 140353 | 165316
9 | 36:44.17 | 4:41.13 | 165317 | 186404
Характеристики диапазона извлечения и сообщения об ошибках
Выбранный диапазон
Имя файла G:\Кино\1989 - Звезда по имени Солнце (1996, MOROZ, MR 96098)\Кино - Звезда по имени Солнце.wav
Пиковый уровень 96.1 %
Качество диапазона 100.0 %
CRC теста B67BC7CA
CRC копии B67BC7CA
Копирование... OK
Ошибок не произошло
Конец отчёта

1989 - Последний герой (1996, MOROZ, MR 96116)

Треклист:
01. Хочу перемен (4:55)
02. Электричка (4:49)
03. Война (4:04)
04. Троллейбус (2:56)
05. Печаль (5:11)
06. Последний герой (3:07)
07. Группа крови (4:00)
08. Мама, мы все тяжело больны (3:51)
09. В наших глазах (3:47)
10. Спокойная ночь (6:24)
Общее время: 43:05

LOG EAC

Exact Audio Copy V0.99 prebeta 4 from 23. January 2008
Отчёт EAC об извлечении, выполненном 15. февраля 2009, 18:17
Кино / Последний герой
Дисковод: Optiarc DVD RW AD-7203S Adapter: 3 ID: 0
Режим чтения : Достоверность
Использование точного потока : Да
Отключение кэша аудио : Да
Использование указателей C2 : Нет
Коррекция смещения при чтении : 48
Способность читать области Lead-in и Lead-out : Нет
Заполнение пропущенных сэмплов тишиной : Да
Удаление блоков с тишиной в начале и конце : Нет
При вычислениях CRC использовались нулевые сэмплы : Да
Интерфейс : Установленный внешний ASPI-интерфейс
Выходной формат : Внутренние WAV-операции
Формат сэмплов : 44.100 Гц; 16 бит; стерео
TOC извлечённого CD
Трек | Старт | Длительность | Начальный сектор | Конечный сектор
---------------------------------------------------------------------
1 | 0:00.55 | 4:55.00 | 55 | 22179
2 | 4:55.55 | 4:49.26 | 22180 | 43880
3 | 9:45.06 | 4:04.25 | 43881 | 62205
4 | 13:49.31 | 2:56.36 | 62206 | 75441
5 | 16:45.67 | 5:10.41 | 75442 | 98732
6 | 21:56.33 | 3:06.46 | 98733 | 112728
7 | 25:03.04 | 3:59.62 | 112729 | 130715
8 | 29:02.66 | 3:50.40 | 130716 | 148005
9 | 32:53.31 | 3:47.20 | 148006 | 165050
10 | 36:40.51 | 6:24.20 | 165051 | 193870
Характеристики диапазона извлечения и сообщения об ошибках
Выбранный диапазон
Имя файла G:\Кино\1989 - Последний герой (1996, MOROZ, MR 96116)\Кино - Последний герой.wav
Пиковый уровень 99.3 %
Качество диапазона 100.0 %
CRC теста 9E8E0641
CRC копии 9E8E0641
Копирование... OK
Ошибок не произошло
AccurateRip: сводка
Трек 1 точность не определена (достоверность 2) [4C346236], AccurateRip вернул [F6561D46]
Трек 2 точность не определена (достоверность 2) [74FEB485], AccurateRip вернул [7EF43585]
Трек 3 точность не определена (достоверность 2) [584D43FB], AccurateRip вернул [A3BBAD4B]
Трек 4 точность не определена (достоверность 2) [3B6B0C87], AccurateRip вернул [D76C31F7]
Трек 5 точность не определена (достоверность 2) [736E4522], AccurateRip вернул [D1CF7E52]
Трек 6 точность не определена (достоверность 2) [FF23C8FB], AccurateRip вернул [4181E3EB]
Трек 7 точность не определена (достоверность 2) [3CDBA69C], AccurateRip вернул [3E6C7F0C]
Трек 8 нет в базе данных
Трек 9 нет в базе данных
Трек 10 нет в базе данных
7 трек(и) не удалось проверить на точность
3 трек(и) не содержатся в базе AccurateRip
Ни один трек не прошёл проверки на точность
В вашей базе может быть иной вариант штамповки диска
Конец отчёта

1990 - Черный альбом (1996, MOROZ, MR 96099)

Треклист:
01. Кончится лето (5:56)
02. Красно-желтые дни (5:51)
03. Нам с тобой (4:50)
04. Звезда (4:30)
05. Кукушка (6:40)
06. Когда твоя девушка больна (4:21)
07. Муравейник (5:18)
08. Следи за собой (5:00)
09. Сосны на морском берегу (5:17)
10. Завтра война (0:35)
Общее время: 48:19

LOG EAC

Exact Audio Copy V0.99 prebeta 4 from 23. January 2008
Отчёт EAC об извлечении, выполненном 15. февраля 2009, 22:17
Кино / Чёрный Альбом
Дисковод: Optiarc DVD RW AD-7203S Adapter: 3 ID: 0
Режим чтения : Достоверность
Использование точного потока : Да
Отключение кэша аудио : Да
Использование указателей C2 : Нет
Коррекция смещения при чтении : 48
Способность читать области Lead-in и Lead-out : Нет
Заполнение пропущенных сэмплов тишиной : Да
Удаление блоков с тишиной в начале и конце : Нет
При вычислениях CRC использовались нулевые сэмплы : Да
Интерфейс : Установленный внешний ASPI-интерфейс
Выходной формат : Внутренние WAV-операции
Формат сэмплов : 44.100 Гц; 16 бит; стерео
TOC извлечённого CD
Трек | Старт | Длительность | Начальный сектор | Конечный сектор
---------------------------------------------------------------------
1 | 0:00.00 | 5:56.16 | 0 | 26715
2 | 5:56.16 | 5:50.38 | 26716 | 53003
3 | 11:46.54 | 4:49.68 | 53004 | 74746
4 | 16:36.47 | 4:30.19 | 74747 | 95015
5 | 21:06.66 | 6:40.23 | 95016 | 125038
6 | 27:47.14 | 4:20.53 | 125039 | 144591
7 | 32:07.67 | 5:18.11 | 144592 | 168452
8 | 37:26.03 | 5:00.33 | 168453 | 190985
9 | 42:26.36 | 5:17.30 | 190986 | 214790
10 | 47:43.66 | 0:35.10 | 214791 | 217425
Характеристики диапазона извлечения и сообщения об ошибках
Выбранный диапазон
Имя файла G:\Кино\1990 - Черный альбом (1996, MOROZ, MR 96099)\Кино - Чёрный Альбом.wav
Пиковый уровень 94.4 %
Качество диапазона 100.0 %
CRC теста E16EF73A
CRC копии E16EF73A
Копирование... OK
Ошибок не произошло
Конец отчёта

2002 - Кино в кино (2002, MOROZ, dMR 61102)

Треклист:
01. Дальше действовать будем мы (3:55)
02. Закрой за мной дверь, я ухожу (4:00)
03. Раньше в твоих глазах зажигались костры... (2:23)
04. Попробуй спеть вместе со мной (5:15)
05. Мы ждем перемен (Авторский вариант) (5:16)
06. Звезда по имени солнце (3:24)
07. Группа крови (4:21)
08. Невеселая песня (5:50)
09. Следи за собой (5:29)
10. Морo едет к морю (2:20)
11. Дина (1:57)
12. Перекати-поле (3:36)
13. Артур (Мамонову) (1:29)
14. Спартак (Баширову) (1:26)
Общее время: 50:38

LOG EAC

Exact Audio Copy V0.99 prebeta 4 from 23. January 2008
Отчёт EAC об извлечении, выполненном 15. февраля 2009, 23:15
Кино / В кино
Дисковод: Optiarc DVD RW AD-7203S Adapter: 3 ID: 0
Режим чтения : Достоверность
Использование точного потока : Да
Отключение кэша аудио : Да
Использование указателей C2 : Нет
Коррекция смещения при чтении : 48
Способность читать области Lead-in и Lead-out : Нет
Заполнение пропущенных сэмплов тишиной : Да
Удаление блоков с тишиной в начале и конце : Нет
При вычислениях CRC использовались нулевые сэмплы : Да
Интерфейс : Установленный внешний ASPI-интерфейс
Выходной формат : Внутренние WAV-операции
Формат сэмплов : 44.100 Гц; 16 бит; стерео
TOC извлечённого CD
Трек | Старт | Длительность | Начальный сектор | Конечный сектор
---------------------------------------------------------------------
1 | 0:00.00 | 3:54.40 | 0 | 17589
2 | 3:54.40 | 4:00.34 | 17590 | 35623
3 | 7:54.74 | 2:23.00 | 35624 | 46348
4 | 10:17.74 | 5:14.40 | 46349 | 69938
5 | 15:32.39 | 5:15.53 | 69939 | 93616
6 | 20:48.17 | 3:23.73 | 93617 | 108914
7 | 24:12.15 | 4:21.01 | 108915 | 128490
8 | 28:33.16 | 5:49.53 | 128491 | 154718
9 | 34:22.69 | 5:28.55 | 154719 | 179373
10 | 39:51.49 | 2:19.51 | 179374 | 189849
11 | 42:11.25 | 1:56.42 | 189850 | 198591
12 | 44:07.67 | 3:35.45 | 198592 | 214761
13 | 47:43.37 | 1:28.63 | 214762 | 221424
14 | 49:12.25 | 1:25.61 | 221425 | 227860
Характеристики диапазона извлечения и сообщения об ошибках
Выбранный диапазон
Имя файла G:\Кино\2002 - Кино в кино (2002, MOROZ, dMR 61102)\Кино - В кино.wav
Пиковый уровень 100.0 %
Качество диапазона 100.0 %
CRC теста CD74941F
CRC копии CD74941F
Копирование... OK
Ошибок не произошло
Конец отчёта

2002 - Последние записи (2002, MOROZ, dMR 61502)

Треклист:
01. Вопрос (авторский вариант) (3:47)
02. Сосны на морском берегу (авторский вариант) (4:32)
03. Blood Type (Группа крови на английском языке) (4:48)
04. Кончится лето (6:04)
05. Красно-желтые дни (6:46)
06. Нам с тобой (5:15)
07. Звезда (4:33)
08. Кукушка (5:46)
09. Когда твоя девушка больна (3:53)
10. Муравейник (4:04)
11. Малыш (2:45)
12. Муравейник (2:40)
13. Когда твоя девушка больна (2:19)
14. Вопрос (3:05)
15. Сосны на морском берегу (3:21)
16. Стук (2:19)
17. Печаль (3:39)
18. Апрель (3:33)
Общее время: 73:07

LOG EAC

Exact Audio Copy V0.99 prebeta 4 from 23. January 2008
Отчёт EAC об извлечении, выполненном 16. февраля 2009, 0:12
Кино / Последние записи
Дисковод: Optiarc DVD RW AD-7203S Adapter: 3 ID: 0
Режим чтения : Достоверность
Использование точного потока : Да
Отключение кэша аудио : Да
Использование указателей C2 : Нет
Коррекция смещения при чтении : 48
Способность читать области Lead-in и Lead-out : Нет
Заполнение пропущенных сэмплов тишиной : Да
Удаление блоков с тишиной в начале и конце : Нет
При вычислениях CRC использовались нулевые сэмплы : Да
Интерфейс : Установленный внешний ASPI-интерфейс
Выходной формат : Внутренние WAV-операции
Формат сэмплов : 44.100 Гц; 16 бит; стерео
TOC извлечённого CD
Трек | Старт | Длительность | Начальный сектор | Конечный сектор
---------------------------------------------------------------------
1 | 0:00.00 | 3:46.42 | 0 | 16991
2 | 3:46.42 | 4:32.31 | 16992 | 37422
3 | 8:18.73 | 4:47.59 | 37423 | 59006
4 | 13:06.57 | 6:03.44 | 59007 | 86275
5 | 19:10.26 | 6:46.17 | 86276 | 116742
6 | 25:56.43 | 5:15.25 | 116743 | 140392
7 | 31:11.68 | 4:32.57 | 140393 | 160849
8 | 35:44.50 | 5:46.02 | 160850 | 186801
9 | 41:30.52 | 3:52.54 | 186802 | 204255
10 | 45:23.31 | 4:03.62 | 204256 | 222542
11 | 49:27.18 | 2:44.62 | 222543 | 234904
12 | 52:12.05 | 2:39.52 | 234905 | 246881
13 | 54:51.57 | 2:18.43 | 246882 | 257274
14 | 57:10.25 | 3:05.08 | 257275 | 271157
15 | 60:15.33 | 3:21.06 | 271158 | 286238
16 | 63:36.39 | 2:18.61 | 286239 | 296649
17 | 65:55.25 | 3:38.63 | 296650 | 313062
18 | 69:34.13 | 3:33.06 | 313063 | 329043
Характеристики диапазона извлечения и сообщения об ошибках
Выбранный диапазон
Имя файла G:\Кино\2002 - Последние записи (2002, MOROZ, dMR 61502)\Кино - Последние записи.wav
Пиковый уровень 100.0 %
Качество диапазона 100.0 %
CRC теста A4AAC3E3
CRC копии A4AAC3E3
Копирование... OK
Ошибок не произошло
Конец отчёта
-
"Mario-os" release style ®
[Profile]  [PM] 
Display posts:    
Reply to topic

Current time is: 02-Mar 22:34

All times are UTC + 2



You cannot post new topics in this forum
You cannot reply to topics in this forum
You cannot edit your posts in this forum
You cannot delete your posts in this forum
You cannot vote in polls in this forum
You cannot attach files in this forum
You cannot download files in this forum