(Alternative) Линда — Коллекция — 6 оригинальных альбомов — 1994-2000, APE (image+.cue), lossless

Reply to topic
 
Author
Message

mario-OS ®

Gender: Male

Longevity: 11 years

Posts: 575

Reputation: 31 [+] [-]

Location: ...из страны, где шлюха стоит всего лишь доллар, солнце всегда и везде (с)

mario-OS · Post 24-Jan-2010 14:49

[Quote] 

Линда-- Жанр: Alternative
Год выпуска диска: 1994-2000
Производитель диска: Various
Аудио кодек: APE
Тип рипа: image+.cue
Битрейт аудио: lossless
-Дополнительная информация:
Все рипы — мои личные, сделанные с собственных CD, на одной и той же проверенной аппаратуре.
• Альбомы "Песни..." и "Танцы тибетских лам" — оригинальной штамповки 1994 г. (Австрия).
• Диск "Ворона" (первая штамповка) 1996 г. на "золоте" в дополнительной картонной коробочке
и с двумя буклетами (в т.ч. с рисунками Линды).
• Альбом "Ворона Remix/Remake" — также оригинальное издание в дигипаке.
• "Эмбрион" Right CD & Wrong CD — первой штамповки, с "правильными" треками на Wrong CD.
Сканы матриц дисков сложены в спойлерах, а также имеются внутри раздачи.
Сканы полиграфии — полные, т.е. диски, ковры и полностью буклеты.
Формат сканов - *.TIFF, 300 dpi.

1994 - Песни тибетских лам

Год выпуска: 1994
Производитель и номер диска: Sony DADC Austria 070 063-1
Продолжительность: 51:27
AccurateRip: Достоверность определена
Треклист:
01. Сделай так [0:06:55.02]
02. Беги на цыпочках [0:03:18.65]
03. Песни тибетских лам [0:04:48.05]
04. Мало огня [0:05:36.13]
05. Танец под водой [0:05:30.02]
06. Девять ангелов [0:04:43.13]
07. Девочки с острыми зубками [0:02:35.22]
08. Купание в грязной воде [0:05:07.40]
09. Я не буду стрелять [0:03:35.40]
10. Киска [0:03:15.00]
11. Я не останусь одна [0:03:17.40]
12. Небесный город [0:02:44.58]

EAC + AccurateRip LOG

Exact Audio Copy V0.99 prebeta 5 from 4. May 2009
EAC extraction logfile from 19. June 2009, 23:19
Линда / Песни тибетских лам
Used drive : MAD DOG MD-16XDVD9A2 Adapter: 3 ID: 0
Read mode : Secure
Utilize accurate stream : Yes
Defeat audio cache : Yes
Make use of C2 pointers : No
Read offset correction : 48
Overread into Lead-In and Lead-Out : No
Fill up missing offset samples with silence : Yes
Delete leading and trailing silent blocks : No
Null samples used in CRC calculations : Yes
Used interface : Installed external ASPI interface
Used output format : Internal WAV Routines
Sample format : 44.100 Hz; 16 Bit; Stereo
TOC of the extracted CD
Track | Start | Length | Start sector | End sector
---------------------------------------------------------
1 | 0:00.00 | 6:55.02 | 0 | 31126
2 | 6:55.02 | 3:18.65 | 31127 | 46041
3 | 10:13.67 | 4:48.05 | 46042 | 67646
4 | 15:01.72 | 5:36.13 | 67647 | 92859
5 | 20:38.10 | 5:30.02 | 92860 | 117611
6 | 26:08.12 | 4:43.13 | 117612 | 138849
7 | 30:51.25 | 2:35.22 | 138850 | 150496
8 | 33:26.47 | 5:07.40 | 150497 | 173561
9 | 38:34.12 | 3:35.40 | 173562 | 189726
10 | 42:09.52 | 3:15.00 | 189727 | 204351
11 | 45:24.52 | 3:17.40 | 204352 | 219166
12 | 48:42.17 | 2:44.58 | 219167 | 231524
Range status and errors
Selected range
Filename E:\TORRENT\Линда\1994 - Песни тибетских лам\Линда - Песни тибетских лам.wav
Peak level 90.5 %
Range quality 100.0 %
Test CRC 881962ED
Copy CRC 881962ED
Copy OK
No errors occurred
AccurateRip summary
Track 1 cannot be verified as accurate (confidence 1) [7B1751AB], AccurateRip returned [2F656760]
Track 2 cannot be verified as accurate (confidence 1) [B522DB90], AccurateRip returned [63070F86]
Track 3 cannot be verified as accurate (confidence 1) [D6D5FC1F], AccurateRip returned [A189269E]
Track 4 cannot be verified as accurate (confidence 1) [C95091E5], AccurateRip returned [0B09C65F]
Track 5 cannot be verified as accurate (confidence 1) [3CDB22F8], AccurateRip returned [395D25F4]
Track 6 cannot be verified as accurate (confidence 1) [DB9FEC8F], AccurateRip returned [8AFCA1BF]
Track 7 cannot be verified as accurate (confidence 1) [A0219E3F], AccurateRip returned [E6DB4336]
Track 8 cannot be verified as accurate (confidence 1) [556BBBE7], AccurateRip returned [D5263343]
Track 9 cannot be verified as accurate (confidence 1) [9C69AC0B], AccurateRip returned [9362B4F1]
Track 10 cannot be verified as accurate (confidence 1) [CD90F37B], AccurateRip returned [B1045FDA]
Track 11 cannot be verified as accurate (confidence 1) [8CCD7CB2], AccurateRip returned [239DA842]
Track 12 cannot be verified as accurate (confidence 1) [57275080], AccurateRip returned [AF4D3002]
No tracks could be verified as accurate
You may have a different pressing from the one(s) in the database
End of status report

1994 - Танцы тибетских лам

Год выпуска: 1994
Производитель и номер диска: Sony DADC Austria 070 064-1
Продолжительность: 46:50
AccurateRip: Диск отсутствует в базе
Треклист:
01. Ожог [0:03:30.17]
02. Нирвана [0:05:42.18]
03. Можно купаться в грязной воде [0:04:24.05]
04. Ляп ляп ляп [0:02:51.10]
05. Пусть будет тихо [0:04:11.47]
06. Распахни меня [0:02:38.15]
07. Мало огня [0:02:56.05]
08. Электрика I [0:03:22.73]
09. Электрика II [0:03:19.05]
10. Шаманка [0:03:47.25]
11. Загляни за солнце [0:03:03.72]
12. Поиграй со мной [0:04:04.25]
13. Подарок [0:02:58.58]

EAC + AccurateRip LOG

Exact Audio Copy V0.99 prebeta 5 from 4. May 2009
EAC extraction logfile from 19. June 2009, 23:39
Линда / Танцы тибетских лам
Used drive : MAD DOG MD-16XDVD9A2 Adapter: 3 ID: 0
Read mode : Secure
Utilize accurate stream : Yes
Defeat audio cache : Yes
Make use of C2 pointers : No
Read offset correction : 48
Overread into Lead-In and Lead-Out : No
Fill up missing offset samples with silence : Yes
Delete leading and trailing silent blocks : No
Null samples used in CRC calculations : Yes
Used interface : Installed external ASPI interface
Used output format : Internal WAV Routines
Sample format : 44.100 Hz; 16 Bit; Stereo
TOC of the extracted CD
Track | Start | Length | Start sector | End sector
---------------------------------------------------------
1 | 0:00.00 | 3:30.17 | 0 | 15766
2 | 3:30.17 | 5:42.18 | 15767 | 41434
3 | 9:12.35 | 4:24.05 | 41435 | 61239
4 | 13:36.40 | 2:51.10 | 61240 | 74074
5 | 16:27.50 | 4:11.47 | 74075 | 92946
6 | 20:39.22 | 2:38.15 | 92947 | 104811
7 | 23:17.37 | 2:56.05 | 104812 | 118016
8 | 26:13.42 | 3:22.73 | 118017 | 133239
9 | 29:36.40 | 3:19.05 | 133240 | 148169
10 | 32:55.45 | 3:47.25 | 148170 | 165219
11 | 36:42.70 | 3:03.72 | 165220 | 179016
12 | 39:46.67 | 4:04.25 | 179017 | 197341
13 | 43:51.17 | 2:58.58 | 197342 | 210749
Range status and errors
Selected range
Filename E:\TORRENT\Линда\1994 - Танцы тибетских лам\Линда - Танцы тибетских лам.wav
Peak level 97.9 %
Range quality 100.0 %
Test CRC 5CCA1F3F
Copy CRC 5CCA1F3F
Copy OK
No errors occurred
AccurateRip summary
Track 1 not present in database
Track 2 not present in database
Track 3 not present in database
Track 4 not present in database
Track 5 not present in database
Track 6 not present in database
Track 7 not present in database
Track 8 not present in database
Track 9 not present in database
Track 10 not present in database
Track 11 not present in database
Track 12 not present in database
Track 13 not present in database
None of the tracks are present in the AccurateRip database
End of status report

1996 - Ворона

Год выпуска: 1996
Производитель и номер диска: Россия 070 100-2
Продолжительность: 53:09
AccurateRip: 100%
Треклист:
01. Холод [0:01:51.66]
02. Северный ветер [0:05:37.71]
03. Никогда [0:04:30.37]
04. Ворона [0:05:32.48]
05. Марихуана [0:05:33.24]
06. Сидите потише [0:05:17.50]
07. Никому я тебя не отдам [0:05:06.32]
08. Дикие [0:04:15.31]
09. Волчица [0:03:36.11]
10. Круг от руки [0:04:29.14]
11. Мы [0:03:17.17]
12. От холода до тепла [0:04:01.01]

EAC + AccurateRip LOG

Exact Audio Copy V0.99 prebeta 5 from 4. May 2009
EAC extraction logfile from 19. June 2009, 22:54
Линда / Ворона
Used drive : MAD DOG MD-16XDVD9A2 Adapter: 3 ID: 0
Read mode : Secure
Utilize accurate stream : Yes
Defeat audio cache : Yes
Make use of C2 pointers : No
Read offset correction : 48
Overread into Lead-In and Lead-Out : No
Fill up missing offset samples with silence : Yes
Delete leading and trailing silent blocks : No
Null samples used in CRC calculations : Yes
Used interface : Installed external ASPI interface
Used output format : Internal WAV Routines
Sample format : 44.100 Hz; 16 Bit; Stereo
TOC of the extracted CD
Track | Start | Length | Start sector | End sector
---------------------------------------------------------
1 | 0:00.00 | 1:51.66 | 0 | 8390
2 | 1:51.66 | 5:37.71 | 8391 | 33736
3 | 7:29.62 | 4:30.37 | 33737 | 54023
4 | 12:00.24 | 5:32.48 | 54024 | 78971
5 | 17:32.72 | 5:33.24 | 78972 | 103970
6 | 23:06.21 | 5:17.50 | 103971 | 127795
7 | 28:23.71 | 5:06.32 | 127796 | 150777
8 | 33:30.28 | 4:15.31 | 150778 | 169933
9 | 37:45.59 | 3:36.11 | 169934 | 186144
10 | 41:21.70 | 4:29.14 | 186145 | 206333
11 | 45:51.09 | 3:17.17 | 206334 | 221125
12 | 49:08.26 | 4:01.01 | 221126 | 239201
Range status and errors
Selected range
Filename E:\TORRENT\Линда\1996 - Ворона\Линда - Ворона.wav
Peak level 100.0 %
Range quality 99.9 %
Test CRC A03118DE
Copy CRC A03118DE
Copy OK
No errors occurred
AccurateRip summary
Track 1 accurately ripped (confidence 3) [337B8578]
Track 2 accurately ripped (confidence 3) [FFEF1566]
Track 3 accurately ripped (confidence 3) [D7F752FD]
Track 4 accurately ripped (confidence 3) [6ECDC0C8]
Track 5 accurately ripped (confidence 3) [1C3ED479]
Track 6 accurately ripped (confidence 3) [58A52B4E]
Track 7 accurately ripped (confidence 3) [536C93EC]
Track 8 accurately ripped (confidence 3) [6BAB09FA]
Track 9 accurately ripped (confidence 3) [1331381F]
Track 10 accurately ripped (confidence 3) [E0A32FF8]
Track 11 accurately ripped (confidence 3) [BD80ADF5]
Track 12 accurately ripped (confidence 3) [3827001A]
All tracks accurately ripped
End of status report

1997 - Ворона - Remix-Remake

Год выпуска: 1997
Производитель и номер диска: Россия, J.S.P. 010 125-2
Продолжительность: 37:27
AccurateRip: Достоверность определена
Треклист:
01. Ворона [0:05:05.31]
02. Северный ветер [0:04:53.63]
03. Никогда [0:04:33.33]
04. Марихуана [0:04:50.21]
05. Мы [0:05:01.01]
06. Сидите потише [0:04:41.44]
07. Никому я тебя не отдам [0:05:12.14]
08. Ворона 2 [0:03:09.13]

EAC + AccurateRip LOG

Exact Audio Copy V0.99 prebeta 5 from 4. May 2009
EAC extraction logfile from 19. June 2009, 22:32
Линда / Ворона - Remix-Remake
Used drive : MAD DOG MD-16XDVD9A2 Adapter: 3 ID: 0
Read mode : Secure
Utilize accurate stream : Yes
Defeat audio cache : Yes
Make use of C2 pointers : No
Read offset correction : 48
Overread into Lead-In and Lead-Out : No
Fill up missing offset samples with silence : Yes
Delete leading and trailing silent blocks : No
Null samples used in CRC calculations : Yes
Used interface : Installed external ASPI interface
Used output format : Internal WAV Routines
Sample format : 44.100 Hz; 16 Bit; Stereo
TOC of the extracted CD
Track | Start | Length | Start sector | End sector
---------------------------------------------------------
1 | 0:00.00 | 5:05.31 | 0 | 22905
2 | 5:05.31 | 4:53.63 | 22906 | 44943
3 | 9:59.19 | 4:33.33 | 44944 | 65451
4 | 14:32.52 | 4:50.21 | 65452 | 87222
5 | 19:22.73 | 5:01.01 | 87223 | 109798
6 | 24:23.74 | 4:41.44 | 109799 | 130917
7 | 29:05.43 | 5:12.14 | 130918 | 154331
8 | 34:17.57 | 3:09.13 | 154332 | 168519
Range status and errors
Selected range
Filename E:\TORRENT\Линда\1999 - Ворона - Remix-Remake\Линда - Ворона - Remix-Remake.wav
Peak level 100.0 %
Range quality 99.9 %
Test CRC 9411D64E
Copy CRC 9411D64E
Copy OK
No errors occurred
AccurateRip summary
Track 1 cannot be verified as accurate (confidence 2) [4499029B], AccurateRip returned [B3D58733]
Track 2 cannot be verified as accurate (confidence 2) [980B32D2], AccurateRip returned [D300610A]
Track 3 cannot be verified as accurate (confidence 2) [845111A8], AccurateRip returned [CDB417B0]
Track 4 cannot be verified as accurate (confidence 2) [54E1B842], AccurateRip returned [C3FE02BA]
Track 5 cannot be verified as accurate (confidence 2) [B13083DB], AccurateRip returned [19760473]
Track 6 cannot be verified as accurate (confidence 2) [154AA26C], AccurateRip returned [0A4FB35C]
Track 7 cannot be verified as accurate (confidence 2) [1AE9CF09], AccurateRip returned [C6A28C69]
Track 8 cannot be verified as accurate (confidence 2) [316C2EBF], AccurateRip returned [7A1FB2CF]
No tracks could be verified as accurate
You may have a different pressing from the one(s) in the database
End of status report

2000 - Эмбрион Right CD

Год выпуска: 2000
Производитель и номер диска: Россия, REAL Records RR 058-CD
Продолжительность: 42:47
AccurateRip: 100%
Треклист:
01. Ничего не бойся! [0:06:48.00]
02. На краю белой реки [0:03:52.40]
03. Я не могу [0:05:12.74]
04. Уносит... [0:04:35.00]
05. Взгляд изнутри [0:04:10.00]
06. Что будет? [0:03:25.30]
07. С тобой... [0:04:49.52]
08. Изнанка света [0:03:43.33]
09. Золотая вода [0:06:09.39]

EAC + AccurateRip LOG

Exact Audio Copy V0.99 prebeta 5 from 4. May 2009
EAC extraction logfile from 19. June 2009, 21:56
Линда / Эмбрион Right CD
Used drive : MAD DOG MD-16XDVD9A2 Adapter: 3 ID: 0
Read mode : Secure
Utilize accurate stream : Yes
Defeat audio cache : Yes
Make use of C2 pointers : No
Read offset correction : 48
Overread into Lead-In and Lead-Out : No
Fill up missing offset samples with silence : Yes
Delete leading and trailing silent blocks : No
Null samples used in CRC calculations : Yes
Used interface : Installed external ASPI interface
Used output format : Internal WAV Routines
Sample format : 44.100 Hz; 16 Bit; Stereo
TOC of the extracted CD
Track | Start | Length | Start sector | End sector
---------------------------------------------------------
1 | 0:00.00 | 6:48.00 | 0 | 30599
2 | 6:48.00 | 3:52.40 | 30600 | 48039
3 | 10:40.40 | 5:12.74 | 48040 | 71513
4 | 15:53.39 | 4:35.00 | 71514 | 92138
5 | 20:28.39 | 4:10.00 | 92139 | 110888
6 | 24:38.39 | 3:25.30 | 110889 | 126293
7 | 28:03.69 | 4:49.52 | 126294 | 148020
8 | 32:53.46 | 3:43.33 | 148021 | 164778
9 | 36:37.04 | 6:09.39 | 164779 | 192492
Range status and errors
Selected range
Filename E:\TORRENT\Линда\2000 - Эмбрион Right CD\Линда - Эмбрион Right CD.wav
Peak level 96.6 %
Range quality 99.9 %
Test CRC 5BC92BC0
Copy CRC 5BC92BC0
Copy OK
No errors occurred
AccurateRip summary
Track 1 accurately ripped (confidence 1) [56DBC15B]
Track 2 accurately ripped (confidence 1) [C676D817]
Track 3 accurately ripped (confidence 1) [CE327E8A]
Track 4 accurately ripped (confidence 1) [480F88DA]
Track 5 accurately ripped (confidence 1) [12C853C1]
Track 6 accurately ripped (confidence 1) [50E1B737]
Track 7 accurately ripped (confidence 1) [28D97D62]
Track 8 accurately ripped (confidence 1) [3BA32406]
Track 9 accurately ripped (confidence 1) [5401782A]
All tracks accurately ripped
End of status report

2000 - Эмбрион Wrong CD

Год выпуска: 2000
Производитель и номер диска: Россия, REAL Records RR 058-CD
Продолжительность: 44:06
AccurateRip: Диск отсутствует в базе
Треклист:
01. Отпусти [0:05:22.65]
02. Дыханье [0:04:25.74]
03. Ангелы [0:05:11.00]
04. Отпусти Меня [0:04:48.45]
05. Я с Тобой Ничего... [0:04:47.10]
06. Вопреки [0:04:30.06]
07. Я Не Помню Тебя [0:05:54.38]
08. Изнанка [0:03:55.13]
09. Дождь [0:05:10.53]

EAC + AccurateRip LOG

Exact Audio Copy V0.99 prebeta 5 from 4. May 2009
EAC extraction logfile from 19. June 2009, 22:15
Линда / Эмбрион Wrong CD
Used drive : MAD DOG MD-16XDVD9A2 Adapter: 3 ID: 0
Read mode : Secure
Utilize accurate stream : Yes
Defeat audio cache : Yes
Make use of C2 pointers : No
Read offset correction : 48
Overread into Lead-In and Lead-Out : No
Fill up missing offset samples with silence : Yes
Delete leading and trailing silent blocks : No
Null samples used in CRC calculations : Yes
Used interface : Installed external ASPI interface
Used output format : Internal WAV Routines
Sample format : 44.100 Hz; 16 Bit; Stereo
TOC of the extracted CD
Track | Start | Length | Start sector | End sector
---------------------------------------------------------
1 | 0:00.00 | 5:22.65 | 0 | 24214
2 | 5:22.65 | 4:25.74 | 24215 | 44163
3 | 9:48.64 | 5:11.00 | 44164 | 67488
4 | 14:59.64 | 4:48.45 | 67489 | 89133
5 | 19:48.34 | 4:47.10 | 89134 | 110668
6 | 24:35.44 | 4:30.06 | 110669 | 130924
7 | 29:05.50 | 5:54.38 | 130925 | 157512
8 | 35:00.13 | 3:55.13 | 157513 | 175150
9 | 38:55.26 | 5:10.53 | 175151 | 198453
Range status and errors
Selected range
Filename E:\TORRENT\Линда\2000 - Эмбрион Wrong CD\Линда - Эмбрион Wrong CD.wav
Peak level 99.8 %
Range quality 99.9 %
Test CRC 7AD20BFC
Copy CRC 7AD20BFC
Copy OK
No errors occurred
AccurateRip summary
Track 1 not present in database
Track 2 not present in database
Track 3 not present in database
Track 4 not present in database
Track 5 not present in database
Track 6 not present in database
Track 7 not present in database
Track 8 not present in database
Track 9 not present in database
None of the tracks are present in the AccurateRip database
End of status report
-
"Mario-os" release style ®
[Profile]  [PM] 
Display posts:    
Reply to topic

Current time is: 25-Jul 21:06

All times are UTC + 2



You cannot post new topics in this forum
You cannot reply to topics in this forum
You cannot edit your posts in this forum
You cannot delete your posts in this forum
You cannot vote in polls in this forum
You cannot attach files in this forum
You cannot download files in this forum