Заклятие 2 / The Conjuring 2 (Джеймс Ван / James Wan) [2016, США, ужасы, мистика, драма, BDRip-AVC] Dub + Original +Sub (rus, eng)

Reply to topic
 
Author
Message

Satyr ®

Gender: Unknown

Longevity: 10 years

Posts: 13741

Reputation: 54 [+] [-]

Satyr · Post 11-Sep-2016 01:20

[Quote] 

Заклятие 2 / The Conjuring 2«The next true story from the case files of Ed and Lorraine Warren»- Страна: США
Жанр: ужасы, мистика, драма
Год выпуска: 2016
Продолжительность: 02:13:53
Перевод: Профессиональный (дублированный) (iTunes)
Оригинальная аудиодорожка: английский
Cубтитры: русские (форс.,полные), английские (полные, SDH)
Навигация по главам: есть
Режиссер: Джеймс Ван / James Wan
В ролях: Патрик Уилсон, Вера Фармига, Мэдисон Вульф, Фрэнсис О’Коннор, Лорен Эспозито, Саймон МакБерни, Мария Дойл Кеннеди, Саймон Делани
Описание: Супружеская чета учёных Лоррейн и Эд Уоррен, изучающих паранормальные явления, борется с тёмными силами, изгоняет демонов уже давно. К ним за помощью обращается одинокая многодетная мать Пегги Ходжсон, в доме которой часто возникают странные, непонятные события, возможно связанные с деятельностью потусторонних сил. Лоррен и Эд направляются в её городок, чтобы помочь бедной женщине и остальным жителям обрести спокойную жизнь в своих домах. Оказавшись на месте, они наблюдают такую картину: жители городка Энфильд постоянно находятся в ощущении ужаса, враждебно настроены друг к другу и подозревают каждого в причастности к колдовству. Ещё и друг за другом стали исчезать и гибнуть люди при очень загадочных обстоятельствах. Супруги начинают выяснять, откуда возникли наводящие страх сверхъестественные силы. Оказалось, что причиной всему происходящему стала колдунья, жившая в этих краях, после смерти которой в городке поселился могущественный демон. Лоррейн и Эду необходимо вступить с ним в серьёзную схватку....- -Качество видео: BDRip-AVC (исходник - BDRemux|The.Conjuring.2.2016.1080p.Blu-ray.Remux.AVC.Atmos-KRaLiMaRKo)
Формат видео: MKV
Видео: x264, 1152x480 (2.40:1), 23,976 fps, ~2214 kbps, 0.167 bit/pixel
Аудио 1: 48 kHz, AC3 Dolby Digital, 3/2 (L,C,R,l,r) + LFE ch, ~384 kbps [русский]
Аудио 2: 48 kHz, AC3 Dolby Digital, 3/2 (L,C,R,l,r) + LFE ch, ~448 kbps [английский]
Формат субтитров: softsub (SRT)

MediaInfo | x264 log

Format : Matroska
Format version : Version 4 / Version 2
File size : 2.91 GiB
Duration : 2h 13mn
Overall bit rate : 3 108 Kbps
Movie name : Заклятие 2 / The Conjuring 2 (2016) :: AFM ::
Encoded date : UTC 2016-08-31 13:09:04
Writing application : mkvmerge v8.3.0 ('Over the Horizon') 32bit
Writing library : libebml v1.3.1 + libmatroska v1.4.2
Video
ID : 1
Format : AVC
Format/Info : Advanced Video Codec
Format profile : High@L4.1
Format settings, CABAC : Yes
Format settings, ReFrames : 10 frames
Codec ID : V_MPEG4/ISO/AVC
Duration : 2h 13mn
Bit rate : 2 214 Kbps
Width : 1 152 pixels
Height : 480 pixels
Display aspect ratio : 2.40:1
Frame rate mode : Constant
Frame rate : 23.976 fps
Color space : YUV
Chroma subsampling : 4:2:0
Bit depth : 8 bits
Scan type : Progressive
Bits/(Pixel*Frame) : 0.167
Stream size : 2.07 GiB (71%)
Title : BDRip by AFM [torrentsland.com.ua]
Writing library : x264 core 148 r2705+54 9f484c1 t_mod_Custom [8-bit@all X86_64]
Encoding settings : cabac=1 / ref=10 / deblock=1:-2:-1 / analyse=0x3:0x113 / me=umh / subme=10 / psy=1 / fade_compensate=0.00 / psy_rd=1.00:0.03 / mixed_ref=1 / me_range=32 / chroma_me=1 / trellis=2 / 8x8dct=1 / cqm=0 / deadzone=21,11 / fast_pskip=0 / chroma_qp_offset=-3 / threads=6 / lookahead_threads=1 / sliced_threads=0 / nr=0 / decimate=1 / interlaced=0 / bluray_compat=0 / constrained_intra=0 / fgo=0 / bframes=14 / b_pyramid=2 / b_adapt=2 / b_bias=0 / direct=1 / weightb=1 / open_gop=0 / weightp=2 / keyint=250 / keyint_min=23 / scenecut=40 / intra_refresh=0 / rc_lookahead=40 / rc=crf / mbtree=0 / crf=18.4500 / qcomp=0.65 / qpmin=0:0:0 / qpmax=69:69:69 / qpstep=4 / vbv_maxrate=50000 / vbv_bufsize=62500 / crf_max=0.0 / nal_hrd=none / filler=0 / ip_ratio=1.33 / pb_ratio=1.27 / aq=1:0.90 / aq-sensitivity=10.00 / aq-factor=1.00:1.00:1.00 / aq2=0 / aq3=0
Language : English
Default : Yes
Forced : No
Audio #1
ID : 2
Format : AC-3
Format/Info : Audio Coding 3
Mode extension : CM (complete main)
Format settings, Endianness : Big
Codec ID : A_AC3
Duration : 2h 13mn
Bit rate mode : Constant
Bit rate : 384 Kbps
Channel(s) : 6 channels
Channel positions : Front: L C R, Side: L R, LFE
Sampling rate : 48.0 KHz
Compression mode : Lossy
Stream size : 368 MiB (12%)
Title : Dub, AC3 5.1 ~384 kbps
Language : Russian
Default : Yes
Forced : No
Audio #2
ID : 3
Format : AC-3
Format/Info : Audio Coding 3
Mode extension : CM (complete main)
Format settings, Endianness : Big
Codec ID : A_AC3
Duration : 2h 13mn
Bit rate mode : Constant
Bit rate : 448 Kbps
Channel(s) : 6 channels
Channel positions : Front: L C R, Side: L R, LFE
Sampling rate : 48.0 KHz
Compression mode : Lossy
Stream size : 429 MiB (14%)
Title : Original, AC3 5.1 ~448 kbps
Language : English
Default : No
Forced : No
Text #1
ID : 4
Format : UTF-8
Codec ID : S_TEXT/UTF8
Codec ID/Info : UTF-8 Plain Text
Title : forced
Language : Russian
Default : Yes
Forced : No
Text #2
ID : 5
Format : UTF-8
Codec ID : S_TEXT/UTF8
Codec ID/Info : UTF-8 Plain Text
Language : Russian
Default : No
Forced : No
Text #3
ID : 6
Format : UTF-8
Codec ID : S_TEXT/UTF8
Codec ID/Info : UTF-8 Plain Text
Language : English
Default : No
Forced : No
Text #4
ID : 7
Format : UTF-8
Codec ID : S_TEXT/UTF8
Codec ID/Info : UTF-8 Plain Text
Title : SDH
Language : English
Default : No
Forced : No
Menu
00:00:00.000 : en:Chapter 01
00:08:24.671 : en:Chapter 02
00:18:40.703 : en:Chapter 03
00:28:34.212 : en:Chapter 04
00:40:01.399 : en:Chapter 05
00:48:46.841 : en:Chapter 06
01:02:14.314 : en:Chapter 07
01:09:29.665 : en:Chapter 08
01:21:55.869 : en:Chapter 09
01:29:26.486 : en:Chapter 10
01:38:53.469 : en:Chapter 11
01:48:15.364 : en:Chapter 12
02:03:10.508 : en:Chapter 13
02:07:36.816 : en:Chapter 14

x264

x264 [info]: frame I:1447 Avg QP:16.02 size: 73294
x264 [info]: frame P:35548 Avg QP:17.22 size: 28596
x264 [info]: frame B:155597 Avg QP:19.39 size: 7458
x264 [info]: consecutive B-frames: 1.5% 1.1% 2.9% 13.0% 16.1% 39.5% 9.3% 8.3% 3.0% 0.8% 1.1% 2.4% 0.5% 0.2% 0.2%
x264 [info]: mb I I16..4: 5.1% 81.4% 13.5%
x264 [info]: mb P I16..4: 0.6% 11.7% 1.1% P16..4: 34.3% 29.7% 17.5% 0.0% 0.0% skip: 5.1%
x264 [info]: mb B I16..4: 0.0% 0.4% 0.1% B16..8: 42.2% 11.2% 3.2% direct: 4.4% skip:38.6% L0:44.1% L1:47.7% BI: 8.2%
x264 [info]: 8x8 transform intra:85.3% inter:60.0%
x264 [info]: coded y,uvDC,uvAC intra: 92.2% 88.7% 73.2% inter: 22.1% 16.1% 2.6%
x264 [info]: i16 v,h,dc,p: 39% 12% 13% 36%
x264 [info]: i8 v,h,dc,ddl,ddr,vr,hd,vl,hu: 10% 7% 11% 10% 13% 13% 12% 11% 12%
x264 [info]: i4 v,h,dc,ddl,ddr,vr,hd,vl,hu: 9% 7% 3% 11% 16% 15% 14% 12% 13%
x264 [info]: i8c dc,h,v,p: 48% 21% 18% 13%
x264 [info]: Weighted P-Frames: Y:4.5% UV:2.2%
x264 [info]: ref P L0: 47.6% 9.8% 17.5% 6.6% 5.7% 3.8% 3.5% 1.8% 1.9% 1.5% 0.1% 0.0%
x264 [info]: ref B L0: 74.2% 11.4% 5.5% 2.9% 2.1% 1.7% 1.3% 0.6% 0.2%
x264 [info]: ref B L1: 94.0% 6.0%
x264 [info]: kb/s:2273.74

Скриншоты

с названием

[Profile]  [PM] 
Display posts:    
Reply to topic

Current time is: 19-Aug 13:45

All times are UTC + 2



You cannot post new topics in this forum
You cannot reply to topics in this forum
You cannot edit your posts in this forum
You cannot delete your posts in this forum
You cannot vote in polls in this forum
You cannot attach files in this forum
You cannot download files in this forum