(Viking/Folk/Pagan/Black) [CD] Nomans Land - Discography (5 CD) (2000-2015), FLAC (image+.cue), lossless

Reply to topic
 
Author
Message

Rogvald ®

Gender: Male

Longevity: 11 years

Posts: 837

Reputation: 1006 [+] [-]

Rogvald · Post 11-Dec-2016 01:29

[Quote] 

Nomans Land / Discography 2000-2015 (5 CD)
Жанр: Viking\Folk\Pagan\Black
Носитель: CD
Год издания: 2000-2015
Страна исполнителя (группы): Russia (Saint Petersburg)
Аудиокодек: FLAC (*.flac)
Тип рипа: image+.cue
Битрейт аудио: lossless
Продолжительность: ~ 04 hours
Источник (релизер): Собственные CD
Наличие сканов в содержимом раздачи: 600dpi

Nomans Land - 2000 - The Last Son Of The Fjord

Жанр: Viking\Folk\Pagan\Black
Носитель: CD
Год издания: 2006
Производитель диска: Germany
Издатель (лейбл): Einheit Produktionen
Номер по каталогу: EP XIII
Страна исполнителя (группы): Russia (Saint Petersburg)
Аудиокодек: FLAC (*.flac)
Тип рипа: image+.cue
Битрейт аудио: lossless
Продолжительность: 35:40
Источник (релизер): Собственный CD
Наличие сканов в содержимом раздачи: да
Треклист:
01 - The Last Son of the Fjord
02 - The Swan Song
03 - Back Home
04 - The Call of Ancestors
05 - No Man's Land (Instrumental)
06 - Two Fathers
07 - In the Skin of a Bear
08 - Ale (Instrumental)

Лог создания рипа

Exact Audio Copy V1.1 from 23. June 2015
EAC extraction logfile from 10. June 2016, 21:41
Nomans Land / The Last Son Of The Fjord
Used drive : HL-DT-STBD-RE BH16NS40 Adapter: 1 ID: 0
Read mode : Secure
Utilize accurate stream : Yes
Defeat audio cache : Yes
Make use of C2 pointers : No
Read offset correction : 6
Overread into Lead-In and Lead-Out : No
Fill up missing offset samples with silence : Yes
Delete leading and trailing silent blocks : No
Null samples used in CRC calculations : Yes
Used interface : Native Win32 interface for Win NT & 2000
Used output format : User Defined Encoder
Selected bitrate : 128 kBit/s
Quality : High
Add ID3 tag : No
Command line compressor : C:\Program Files (x86)\Exact Audio Copy\Flac\flac.exe
Additional command line options : -V -8 -T "Date=%year%" -T "Genre=%genre%" %source%
TOC of the extracted CD
Track | Start | Length | Start sector | End sector
---------------------------------------------------------
1 | 0:00.00 | 6:24.27 | 0 | 28826
2 | 6:24.27 | 4:57.19 | 28827 | 51120
3 | 11:21.46 | 5:15.39 | 51121 | 74784
4 | 16:37.10 | 4:52.69 | 74785 | 96753
5 | 21:30.04 | 2:45.54 | 96754 | 109182
6 | 24:15.58 | 4:50.23 | 109183 | 130955
7 | 29:06.06 | 5:20.63 | 130956 | 155018
8 | 34:26.69 | 1:17.73 | 155019 | 160866
9 | 38:16.67 | 40:40.43 | 172267 | 355309
Range status and errors
Selected range
Filename Z:\home\moroder666\Музыка\Nomans Land\Nomans Land - 2000 - The Last Son Of The Fjord\Nomans Land - The Last Son Of The Fjord.wav
Peak level 100.0 %
Extraction speed 6.4 X
Range quality 100.0 %
Test CRC AB8A2FBF
Copy CRC AB8A2FBF
Copy OK
No errors occurred
AccurateRip summary
Track 1 accurately ripped (confidence 4) [737B68DD] (AR v2)
Track 2 accurately ripped (confidence 4) [49E1DC1D] (AR v2)
Track 3 accurately ripped (confidence 4) [2F178927] (AR v2)
Track 4 accurately ripped (confidence 4) [E4D54FF2] (AR v2)
Track 5 accurately ripped (confidence 4) [C23AF18E] (AR v2)
Track 6 accurately ripped (confidence 4) [F3ED1FBE] (AR v2)
Track 7 accurately ripped (confidence 4) [0FF847A7] (AR v2)
Track 8 accurately ripped (confidence 4) [EF86DFE9] (AR v2)
All tracks accurately ripped
End of status report
==== Log checksum 77D609E8EFA3B3225D691DED8D2B9876A0C54A86E5B5B631D7EE942F107B3424 ====

Nomans Land - 2005 - Hammerfrost

Жанр: Viking\Folk\Pagan\Black
Носитель: CD
Год издания: 2005
Производитель диска: Russia
Издатель (лейбл): CD-Maximum
Номер по каталогу: CDM 0105-2185
Страна исполнителя (группы): Russia (Saint Petersburg)
Аудиокодек: FLAC (*.flac)
Тип рипа: image+.cue
Битрейт аудио: lossless
Продолжительность: 47:18
Источник (релизер): Собственный CD
Наличие сканов в содержимом раздачи: да
Треклист:
01. Lord Of The Seas
02. Breath Of The North
03. At The Odin's Feast (Instrumental)
04. Konung
05. Triumph Of Winter
06. The Source Of Mimir
07. Ale (Instrumental)
08. Twilight Of The Ages
09. Fjell Og Fjord (Instrumental)
10. Balfor

Лог создания рипа

Exact Audio Copy V1.1 from 23. June 2015
EAC extraction logfile from 22. May 2016, 12:25
Nomans Land / Hammerfrost
Used drive : HL-DT-STBD-RE BH16NS40 Adapter: 1 ID: 0
Read mode : Secure
Utilize accurate stream : Yes
Defeat audio cache : Yes
Make use of C2 pointers : No
Read offset correction : 6
Overread into Lead-In and Lead-Out : No
Fill up missing offset samples with silence : Yes
Delete leading and trailing silent blocks : No
Null samples used in CRC calculations : Yes
Used interface : Native Win32 interface for Win NT & 2000
Used output format : User Defined Encoder
Selected bitrate : 128 kBit/s
Quality : High
Add ID3 tag : No
Command line compressor : C:\Program Files (x86)\Exact Audio Copy\Flac\flac.exe
Additional command line options : -V -8 -T "Date=%year%" -T "Genre=%genre%" %source%
TOC of the extracted CD
Track | Start | Length | Start sector | End sector
---------------------------------------------------------
1 | 0:00.00 | 5:33.58 | 0 | 25032
2 | 5:33.58 | 5:29.19 | 25033 | 49726
3 | 11:03.02 | 6:40.44 | 49727 | 79770
4 | 17:43.46 | 2:57.58 | 79771 | 93103
5 | 20:41.29 | 5:09.09 | 93104 | 116287
6 | 25:50.38 | 4:15.29 | 116288 | 135441
7 | 30:05.67 | 1:48.26 | 135442 | 143567
8 | 31:54.18 | 4:46.30 | 143568 | 165047
9 | 36:40.48 | 3:37.74 | 165048 | 181396
10 | 40:18.47 | 7:06.54 | 181397 | 213400
Range status and errors
Selected range
Filename Z:\home\moroder666\Музыка\Nomans Land\Nomans Land - 2005 - Hammerfrost\Nomans Land - Hammerfrost.wav
Peak level 100.0 %
Extraction speed 3.3 X
Range quality 100.0 %
Test CRC 67AAFCA8
Copy CRC 67AAFCA8
Copy OK
No errors occurred
AccurateRip summary
Track 1 accurately ripped (confidence 3) [7BE60E22] (AR v1)
Track 2 accurately ripped (confidence 3) [621F21F4] (AR v1)
Track 3 accurately ripped (confidence 3) [485D4FF1] (AR v1)
Track 4 accurately ripped (confidence 3) [4BEB9982] (AR v1)
Track 5 accurately ripped (confidence 3) [3E710209] (AR v1)
Track 6 accurately ripped (confidence 3) [E1A1BAB6] (AR v1)
Track 7 accurately ripped (confidence 3) [AD6713B9] (AR v1)
Track 8 accurately ripped (confidence 3) [CB746068] (AR v1)
Track 9 accurately ripped (confidence 3) [B6AEE250] (AR v1)
Track 10 accurately ripped (confidence 3) [C569F036] (AR v1)
All tracks accurately ripped
End of status report
==== Log checksum DEC20FBB42E1F65C534A3FF6A8CE999562A2FE4F108E043B85DAA3CB0012B3CD ====

Nomans Land - 2006 - Raven Flight

Жанр: Viking\Folk\Pagan\Black
Носитель: CD
Год издания: 2006
Производитель диска: Russia
Издатель (лейбл): Фоно
Номер по каталогу: FO635CD
Страна исполнителя (группы): Russia (Saint Petersburg)
Аудиокодек: FLAC (*.flac)
Тип рипа: image+.cue
Битрейт аудио: lossless
Продолжительность: 41:25
Источник (релизер): Собственный CD
Наличие сканов в содержимом раздачи: да
Треклист:
1 To The Far Lands 1:34
2 Sea Battlefield 4:00
3 Torir Scald 4:22
4 Bridge Warder 4:48
5 Mjolnir 4:32
6 Hail Normann!!! 4:44
7 Raven Flight 3:55
8 Dragon’s Grin 4:04
9 Beard Of Storm 3:35
10 War Song 4:09
11 Back With Glory 1:37

Лог создания рипа

Exact Audio Copy V1.1 from 23. June 2015
EAC extraction logfile from 18. July 2016, 21:22
Nomans Land / Raven Flight
Used drive : HL-DT-STBD-RE BH16NS40 Adapter: 3 ID: 0
Read mode : Secure
Utilize accurate stream : Yes
Defeat audio cache : Yes
Make use of C2 pointers : No
Read offset correction : 6
Overread into Lead-In and Lead-Out : No
Fill up missing offset samples with silence : Yes
Delete leading and trailing silent blocks : No
Null samples used in CRC calculations : Yes
Used interface : Installed external ASPI interface
Used output format : User Defined Encoder
Selected bitrate : 128 kBit/s
Quality : High
Add ID3 tag : No
Command line compressor : C:\Program Files (x86)\Exact Audio Copy\Flac\flac.exe
Additional command line options : -V -8 -T "Date=%year%" -T "Genre=%genre%" %source%
TOC of the extracted CD
Track | Start | Length | Start sector | End sector
---------------------------------------------------------
1 | 0:00.00 | 1:34.39 | 0 | 7088
2 | 1:34.39 | 4:00.49 | 7089 | 25137
3 | 5:35.13 | 4:22.31 | 25138 | 44818
4 | 9:57.44 | 4:48.16 | 44819 | 66434
5 | 14:45.60 | 4:32.07 | 66435 | 86841
6 | 19:17.67 | 4:44.01 | 86842 | 108142
7 | 24:01.68 | 3:55.73 | 108143 | 125840
8 | 27:57.66 | 4:04.55 | 125841 | 144195
9 | 32:02.46 | 3:35.01 | 144196 | 160321
10 | 35:37.47 | 4:09.52 | 160322 | 179048
11 | 39:47.24 | 1:37.25 | 179049 | 186348
Range status and errors
Selected range
Filename Z:\home\moroder666\Музыка\Nomans Land\Nomans Land - Raven Flight.wav
Peak level 94.7 %
Extraction speed 4.0 X
Range quality 99.9 %
Test CRC 03540939
Copy CRC 03540939
Copy OK
No errors occurred
AccurateRip summary
Track 1 accurately ripped (confidence 2) [FE4AD129] (AR v1)
Track 2 accurately ripped (confidence 2) [9D65C7AE] (AR v1)
Track 3 accurately ripped (confidence 2) [282C5E6A] (AR v1)
Track 4 accurately ripped (confidence 2) [045F419C] (AR v1)
Track 5 accurately ripped (confidence 1) [7C0ED39F] (AR v2)
Track 6 accurately ripped (confidence 2) [A5DE0148] (AR v1)
Track 7 accurately ripped (confidence 2) [E3F3734E] (AR v1)
Track 8 accurately ripped (confidence 2) [9E7C3949] (AR v1)
Track 9 accurately ripped (confidence 2) [40F6DE1F] (AR v1)
Track 10 accurately ripped (confidence 2) [1EDA11D4] (AR v1)
Track 11 accurately ripped (confidence 2) [A23D9C94] (AR v1)
All tracks accurately ripped
End of status report
==== Log checksum AAE539E2C78ACF979AE4C85CD6E61F538420FDCBE5761DC1D91EFF2CDCCCE3BC ====

Nomans Land - 2009 - Farnord

Жанр: Viking\Folk\Pagan\Black
Носитель: CD
Год издания: 2009
Производитель диска: Russia
Издатель (лейбл): Soyuz Music
Номер по каталогу: EP XXIII
Страна исполнителя (группы): Russia (Saint Petersburg)
Аудиокодек: FLAC (*.flac)
Тип рипа: image+.cue
Битрейт аудио: lossless
Продолжительность: 42:56
Источник (релизер): Собственный CD
Наличие сканов в содержимом раздачи: да
Треклист:
1 Shield Of Northern Fjords
2 Valhalla Calls
3 Nornorheim
4 Prophecy Of Runes
5 Land Of A Cold Flame
6 Ulvsjar
7 Father North
8 Storm Of Steel
Bonus Track
9 Voice Of Battle

Лог создания рипа

Exact Audio Copy V1.1 from 23. June 2015
EAC extraction logfile from 5. June 2016, 9:34
Nomans Land / Farnord
Used drive : HL-DT-STBD-RE BH16NS40 Adapter: 1 ID: 0
Read mode : Secure
Utilize accurate stream : Yes
Defeat audio cache : Yes
Make use of C2 pointers : No
Read offset correction : 6
Overread into Lead-In and Lead-Out : No
Fill up missing offset samples with silence : Yes
Delete leading and trailing silent blocks : No
Null samples used in CRC calculations : Yes
Used interface : Native Win32 interface for Win NT & 2000
Used output format : User Defined Encoder
Selected bitrate : 128 kBit/s
Quality : High
Add ID3 tag : No
Command line compressor : C:\Program Files (x86)\Exact Audio Copy\Flac\flac.exe
Additional command line options : -V -8 -T "Date=%year%" -T "Genre=%genre%" %source%
TOC of the extracted CD
Track | Start | Length | Start sector | End sector
---------------------------------------------------------
1 | 0:00.00 | 5:02.46 | 0 | 22695
2 | 5:02.46 | 3:31.00 | 22696 | 38520
3 | 8:33.46 | 4:56.49 | 38521 | 60769
4 | 13:30.20 | 4:36.42 | 60770 | 81511
5 | 18:06.62 | 5:03.45 | 81512 | 104281
6 | 23:10.32 | 4:57.06 | 104282 | 126562
7 | 28:07.38 | 4:38.68 | 126563 | 147480
8 | 32:46.31 | 5:59.00 | 147481 | 174405
9 | 38:45.31 | 4:10.56 | 174406 | 193211
Range status and errors
Selected range
Filename Z:\home\moroder666\Музыка\Nomans Land\Nomans Land - 2009 - Farnord\Nomans Land - Farnord.wav
Peak level 97.7 %
Extraction speed 4.4 X
Range quality 100.0 %
Test CRC 6BB376FE
Copy CRC 6BB376FE
Copy OK
No errors occurred
AccurateRip summary
Track 1 cannot be verified as accurate (confidence 3) [EC3BA3ED], AccurateRip returned [BCF19EBF] (AR v2)
Track 2 cannot be verified as accurate (confidence 3) [F1CEDEE4], AccurateRip returned [91728AB9] (AR v2)
Track 3 cannot be verified as accurate (confidence 3) [CC4465FB], AccurateRip returned [E73C16C8] (AR v2)
Track 4 cannot be verified as accurate (confidence 3) [6B4840FE], AccurateRip returned [896792DA] (AR v2)
Track 5 cannot be verified as accurate (confidence 3) [8ADF6DED], AccurateRip returned [BEFF9EF5] (AR v2)
Track 6 cannot be verified as accurate (confidence 3) [8EFD989E], AccurateRip returned [6C002C8F] (AR v2)
Track 7 cannot be verified as accurate (confidence 3) [BE3B2D24], AccurateRip returned [31635B14] (AR v2)
Track 8 cannot be verified as accurate (confidence 3) [6DC893E8], AccurateRip returned [E98461D9] (AR v2)
Track 9 cannot be verified as accurate (confidence 3) [532AAA44], AccurateRip returned [8A375241] (AR v2)
No tracks could be verified as accurate
You may have a different pressing from the one(s) in the database
End of status report
==== Log checksum D05512D7691DD291ECA9104E53274A5647F26DD45B6D7971003CE2AF363AC85A ====

Nomans Land - 2015 - Last Crusade

Жанр: Viking\Folk\Pagan\Black
Носитель: CD
Год издания: 2015
Производитель диска: Russia
Издатель (лейбл): Massacre Records
Номер по каталогу: MAS CD0900
Страна исполнителя (группы): Russia (Saint Petersburg)
Аудиокодек: FLAC (*.flac)
Тип рипа: image+.cue
Битрейт аудио: lossless
Продолжительность: 40:35
Источник (релизер): Собственный CD
Наличие сканов в содержимом раздачи: да
Треклист:
1 Right to Luck 4:43
2 Sons of the Nord 5:56
3 Victory Horns 4:53
4 Strain at the Oars 5:14
5 Dragons 4:52
6 Last Crusade 5:38
7 Warrior's Path 5:00
8 Bereza 4:19

Лог создания рипа

Exact Audio Copy V1.1 from 23. June 2015
EAC extraction logfile from 10. June 2016, 22:09
Nomans Land / Last Crusade
Used drive : HL-DT-STBD-RE BH16NS40 Adapter: 1 ID: 0
Read mode : Secure
Utilize accurate stream : Yes
Defeat audio cache : Yes
Make use of C2 pointers : No
Read offset correction : 6
Overread into Lead-In and Lead-Out : No
Fill up missing offset samples with silence : Yes
Delete leading and trailing silent blocks : No
Null samples used in CRC calculations : Yes
Used interface : Native Win32 interface for Win NT & 2000
Used output format : User Defined Encoder
Selected bitrate : 128 kBit/s
Quality : High
Add ID3 tag : No
Command line compressor : C:\Program Files (x86)\Exact Audio Copy\Flac\flac.exe
Additional command line options : -V -8 -T "Date=%year%" -T "Genre=%genre%" %source%
TOC of the extracted CD
Track | Start | Length | Start sector | End sector
---------------------------------------------------------
1 | 0:00.00 | 4:43.45 | 0 | 21269
2 | 4:43.45 | 5:56.29 | 21270 | 47998
3 | 10:39.74 | 4:53.14 | 47999 | 69987
4 | 15:33.13 | 5:14.11 | 69988 | 93548
5 | 20:47.24 | 4:52.27 | 93549 | 115475
6 | 25:39.51 | 5:38.10 | 115476 | 140835
7 | 31:17.61 | 5:00.27 | 140836 | 163362
8 | 36:18.13 | 4:19.48 | 163363 | 182835
Range status and errors
Selected range
Filename Z:\home\moroder666\Музыка\Nomans Land\Nomans Land - 2015 - Last Crusade\Nomans Land - Last Crusade.wav
Peak level 97.9 %
Extraction speed 3.8 X
Range quality 100.0 %
Test CRC 3052AE4F
Copy CRC 3052AE4F
Copy OK
No errors occurred
AccurateRip summary
Track 1 not present in database
Track 2 not present in database
Track 3 not present in database
Track 4 not present in database
Track 5 not present in database
Track 6 not present in database
Track 7 not present in database
Track 8 not present in database
None of the tracks are present in the AccurateRip database
End of status report
==== Log checksum 86DF68C241B97FAB207F5ECA200B56ABDD0595F1A6ED5D9B37403EA8A37B3D34 ====
[Profile]  [PM] 
Display posts:    
Reply to topic

Current time is: 20-Jan 20:32

All times are UTC + 2



You cannot post new topics in this forum
You cannot reply to topics in this forum
You cannot edit your posts in this forum
You cannot delete your posts in this forum
You cannot vote in polls in this forum
You cannot attach files in this forum
You cannot download files in this forum