(Heavy Metal) Ария - Дискография (41 CD) [1985-2011], FLAC (image+.cue), lossless

Reply to topic
 
Author
Message

Satyr ®

Online

Gender: Unknown

Longevity: 11 years

Posts: 15401

Reputation: 55 [+] [-]

Satyr · Post 26-Mar-2009 00:35

[Quote] 

Ария - Дискография (1985-2011)
Страна: СССР / Россия
Жанр: Heavy Metal
Год выпуска: 1985 - 2011
Формат: FLAC (image + .cue)
Битрейт аудио: lossless
Продолжительность: 41 CD
Наличие сканов: ко всем релизам
Трэклист:
Номерные альбомы

Мания Величия (1985)

01. Это Рок (5:55)
02. Тореро (5:29)
03. Волонтёр (8:24)
04. Бивни Чёрных Скал (4:51)
05. Мания Величия (1:50)
06. Жизнь Задаром (4:19)
07. Мечты (5:17)
08. Позади Америка (5:14)

Отчёт EAC

Exact Audio Copy V0.99 prebeta 3 from 28. July 2007
Отчёт EAC об извлечении, выполненном 4. февраля 2008, 13:36
Ария / Мания Величия
Дисковод: Optiarc DVD RW AD-7173A Adapter: 4 ID: 0
Режим чтения : Достоверность
Использование точного потока : Да
Отключение кэша аудио : Да
Использование указателей C2 : Нет
Коррекция смещения при чтении : 48
Способность читать области Lead-in и Lead-out : Нет
Заполнение пропущенных сэмплов тишиной : Да
Удаление блоков с тишиной в начале и конце : Нет
При вычислениях CRC использовались нулевые сэмплы : Да
Интерфейс : Встроенный Win32-интерфейс для Win NT/2000
Выходной формат : Внутренние WAV-операции
Формат сэмплов : 44.100 Гц; 16 бит; стерео
TOC извлечённого CD
Трек | Старт | Длительность | Начальный сектор | Конечный сектор
---------------------------------------------------------------------
1 | 0:00.00 | 5:54.62 | 0 | 26611
2 | 5:54.62 | 5:28.68 | 26612 | 51279
3 | 11:23.55 | 8:24.20 | 51280 | 89099
4 | 19:48.00 | 4:51.25 | 89100 | 110949
5 | 24:39.25 | 1:49.42 | 110950 | 119166
6 | 26:28.67 | 4:19.00 | 119167 | 138591
7 | 30:47.67 | 5:16.58 | 138592 | 162349
8 | 36:04.50 | 5:14.25 | 162350 | 185924
Характеристики диапазона извлечения и сообщения об ошибках
Выбранный диапазон
Имя файла E:\Музыка (Lossless)\Ария\1985 - Мания Величия\Ария - Мания Величия.wav
Пиковый уровень 73.3 %
Качество диапазона 100.0 %
CRC копии DCF4866A
Копирование... OK
Ошибок не произошло
AccurateRip: сводка
Трек 1 точное извлечение (доверие 3) [17916926]
Трек 2 точное извлечение (доверие 3) [3A81B6A2]
Трек 3 точное извлечение (доверие 3) [F7CB9994]
Трек 4 точное извлечение (доверие 3) [7D0B1117]
Трек 5 точное извлечение (доверие 3) [C8A018B1]
Трек 6 точное извлечение (доверие 3) [B702592B]
Трек 7 точное извлечение (доверие 3) [35ACA8F6]
Трек 8 точность не определена (достоверность 2) [7A69E6F5], AccurateRip вернул [AF478449]
7 трек(и) скопированы точно
1 трек(и) не удалось проверить на точность
Некоторые треки не прошли проверку на точность
Конец отчёта

С Кем Ты? (1986)

01. Воля И Разум (4:34)
02. Встань, Страх, Преодолей (4:16)
03. Здесь Куют Металл (4:43)
04. С Кем Ты? (4:43)
05. Без Тебя (4:25)
06. Память О... (2:49)
07. Икар (4:15)
08. Игры Не Для Нас (5:47)

Отчёт EAC

Exact Audio Copy V0.99 prebeta 3 from 28. July 2007
Отчёт EAC об извлечении, выполненном 12. февраля 2008, 23:21
Ария / С Кем Ты?
Дисковод: Optiarc DVD RW AD-7173A Adapter: 4 ID: 0
Режим чтения : Достоверность
Использование точного потока : Да
Отключение кэша аудио : Да
Использование указателей C2 : Нет
Коррекция смещения при чтении : 48
Способность читать области Lead-in и Lead-out : Нет
Заполнение пропущенных сэмплов тишиной : Да
Удаление блоков с тишиной в начале и конце : Нет
При вычислениях CRC использовались нулевые сэмплы : Да
Интерфейс : Встроенный Win32-интерфейс для Win NT/2000
Выходной формат : Внутренние WAV-операции
Формат сэмплов : 44.100 Гц; 16 бит; стерео
TOC извлечённого CD
Трек | Старт | Длительность | Начальный сектор | Конечный сектор
---------------------------------------------------------------------
1 | 0:00.00 | 4:34.25 | 0 | 20574
2 | 4:34.25 | 4:16.10 | 20575 | 39784
3 | 8:50.35 | 4:42.55 | 39785 | 60989
4 | 13:33.15 | 4:43.27 | 60990 | 82241
5 | 18:16.42 | 4:24.40 | 82242 | 102081
6 | 22:41.07 | 2:48.73 | 102082 | 114754
7 | 25:30.05 | 4:14.50 | 114755 | 133854
8 | 29:44.55 | 5:47.20 | 133855 | 159899
Характеристики диапазона извлечения и сообщения об ошибках
Выбранный диапазон
Имя файла E:\Музыка (Lossless)\Ария\1986 - С Кем Ты\Ария - С Кем Ты.wav
Пиковый уровень 73.5 %
Качество диапазона 100.0 %
CRC копии F7E2534B
Копирование... OK
Ошибок не произошло
AccurateRip: сводка
Трек 1 точное извлечение (доверие 3) [9FD4A1F4]
Трек 2 точное извлечение (доверие 3) [D29AC695]
Трек 3 точное извлечение (доверие 3) [8B9736A2]
Трек 4 точное извлечение (доверие 3) [6AEF20C9]
Трек 5 точное извлечение (доверие 3) [B1AA8B64]
Трек 6 точное извлечение (доверие 3) [AFA89FFB]
Трек 7 точное извлечение (доверие 3) [B26693D0]
Трек 8 точное извлечение (доверие 3) [F3FD4288]
Все треки извлечены точно
Конец отчёта

Герой Асфальта (1987)

01. На Службе Силы Зла (7:11)
02. Герой Асфальта (5:14)
03. Мёртвая Зона (6:43)
04. 1100 (4:55)
05. Улица Роз (5:57)
06. Баллада О Древнерусском Воине (8:32)

Отчёт EAC

Exact Audio Copy V0.99 prebeta 3 from 28. July 2007
Отчёт EAC об извлечении, выполненном 12. февраля 2008, 23:59
Ария / Герой Асфальта
Дисковод: Optiarc DVD RW AD-7173A Adapter: 4 ID: 0
Режим чтения : Достоверность
Использование точного потока : Да
Отключение кэша аудио : Да
Использование указателей C2 : Нет
Коррекция смещения при чтении : 48
Способность читать области Lead-in и Lead-out : Нет
Заполнение пропущенных сэмплов тишиной : Да
Удаление блоков с тишиной в начале и конце : Нет
При вычислениях CRC использовались нулевые сэмплы : Да
Интерфейс : Встроенный Win32-интерфейс для Win NT/2000
Выходной формат : Внутренние WAV-операции
Формат сэмплов : 44.100 Гц; 16 бит; стерео
TOC извлечённого CD
Трек | Старт | Длительность | Начальный сектор | Конечный сектор
---------------------------------------------------------------------
1 | 0:00.00 | 7:10.62 | 0 | 32311
2 | 7:10.62 | 5:13.45 | 32312 | 55831
3 | 12:24.32 | 6:43.18 | 55832 | 86074
4 | 19:07.50 | 4:55.17 | 86075 | 108216
5 | 24:02.67 | 5:56.45 | 108217 | 134961
6 | 29:59.37 | 8:31.38 | 134962 | 173324
Характеристики диапазона извлечения и сообщения об ошибках
Выбранный диапазон
Имя файла E:\Музыка (Lossless)\Ария\1987 - Герой Асфальта\Ария - Герой Асфальта.wav
Пиковый уровень 74.9 %
Качество диапазона 100.0 %
CRC копии 7F1DBA2C
Копирование... OK
Ошибок не произошло
AccurateRip: сводка
Трек 1 точность не определена (достоверность 2) [384FAD02], AccurateRip вернул [06CDE863]
Трек 2 точность не определена (достоверность 2) [7CD9B9F6], AccurateRip вернул [3E32842B]
Трек 3 точность не определена (достоверность 2) [AE428D1E], AccurateRip вернул [91273E67]
Трек 4 точность не определена (достоверность 2) [48F7AFC7], AccurateRip вернул [2FB49CEA]
Трек 5 точность не определена (достоверность 2) [30F9DB29], AccurateRip вернул [C91B1FA7]
Трек 6 нет в базе данных
5 трек(и) не удалось проверить на точность
1 трек(и) не содержатся в базе AccurateRip
Ни один трек не прошёл проверки на точность
В вашей базе может быть иной вариант штамповки диска
Конец отчёта

Игра С Огнём (1989)

01. Что Вы Сделали С Вашей Мечтой? (5:22)
02. Раскачаем Этот Мир (6:01)
03. Раб Страха (4:40)
04. Искушение (4:00)
05. Игра С Огнём (9:05)
06. Бой Продолжается (6:08)
07. Дай Жару! (4:26)

Отчёт EAC

Exact Audio Copy V0.99 prebeta 3 from 28. July 2007
Отчёт EAC об извлечении, выполненном 4. февраля 2008, 14:06
Ария / Игра С Огнём
Дисковод: Optiarc DVD RW AD-7173A Adapter: 4 ID: 0
Режим чтения : Достоверность
Использование точного потока : Да
Отключение кэша аудио : Да
Использование указателей C2 : Нет
Коррекция смещения при чтении : 48
Способность читать области Lead-in и Lead-out : Нет
Заполнение пропущенных сэмплов тишиной : Да
Удаление блоков с тишиной в начале и конце : Нет
При вычислениях CRC использовались нулевые сэмплы : Да
Интерфейс : Встроенный Win32-интерфейс для Win NT/2000
Выходной формат : Внутренние WAV-операции
Формат сэмплов : 44.100 Гц; 16 бит; стерео
TOC извлечённого CD
Трек | Старт | Длительность | Начальный сектор | Конечный сектор
---------------------------------------------------------------------
1 | 0:00.00 | 5:21.67 | 0 | 24141
2 | 5:21.67 | 6:01.35 | 24142 | 51251
3 | 11:23.27 | 4:40.35 | 51252 | 72286
4 | 16:03.62 | 4:00.33 | 72287 | 90319
5 | 20:04.20 | 9:04.47 | 90320 | 131166
6 | 29:08.67 | 6:08.13 | 131167 | 158779
7 | 35:17.05 | 4:25.70 | 158780 | 178724
Характеристики диапазона извлечения и сообщения об ошибках
Выбранный диапазон
Имя файла E:\Музыка (Lossless)\Ария\1989 - Игра С Огнём\Ария - Игра С Огнём.wav
Пиковый уровень 73.3 %
Качество диапазона 100.0 %
CRC копии 82585F2D
Копирование... OK
Ошибок не произошло
AccurateRip: сводка
Трек 1 точность не определена (достоверность 3) [3918485D], AccurateRip вернул [A9CC5F8C]
Трек 2 точность не определена (достоверность 3) [2765EA42], AccurateRip вернул [56D44A80]
Трек 3 точность не определена (достоверность 3) [7CB8C6D0], AccurateRip вернул [95CDDC91]
Трек 4 точность не определена (достоверность 3) [3E414EBE], AccurateRip вернул [F5F9C878]
Трек 5 точность не определена (достоверность 3) [81CBA282], AccurateRip вернул [61709133]
Трек 6 точность не определена (достоверность 2) [B24642D1], AccurateRip вернул [62967554]
Трек 7 точность не определена (достоверность 3) [58CADB69], AccurateRip вернул [C0241FBB]
Ни один трек не прошёл проверки на точность
В вашей базе может быть иной вариант штамповки диска
Конец отчёта

Кровь За Кровь (1991)

01. Прощай, Норфолк! (5:20)
02. Зомби (4:31)
03. Антихрист (5:05)
04. Не Хочешь, Не Верь Мне (4:03)
05. Кровь За Кровь (7:43)
06. Бесы (3:22)
07. Всё, Что Было (5:15)
08. Следуй За Мной! (4:42)

Отчёт EAC

Exact Audio Copy V0.99 prebeta 3 from 28. July 2007
Отчёт EAC об извлечении, выполненном 4. февраля 2008, 14:19
Ария / Кровь За Кровь
Дисковод: Optiarc DVD RW AD-7173A Adapter: 4 ID: 0
Режим чтения : Достоверность
Использование точного потока : Да
Отключение кэша аудио : Да
Использование указателей C2 : Нет
Коррекция смещения при чтении : 48
Способность читать области Lead-in и Lead-out : Нет
Заполнение пропущенных сэмплов тишиной : Да
Удаление блоков с тишиной в начале и конце : Нет
При вычислениях CRC использовались нулевые сэмплы : Да
Интерфейс : Встроенный Win32-интерфейс для Win NT/2000
Выходной формат : Внутренние WAV-операции
Формат сэмплов : 44.100 Гц; 16 бит; стерео
TOC извлечённого CD
Трек | Старт | Длительность | Начальный сектор | Конечный сектор
---------------------------------------------------------------------
1 | 0:00.00 | 5:20.17 | 0 | 24016
2 | 5:20.17 | 4:30.53 | 24017 | 44319
3 | 9:50.70 | 5:04.65 | 44320 | 67184
4 | 14:55.60 | 4:02.65 | 67185 | 85399
5 | 18:58.50 | 7:43.37 | 85400 | 120161
6 | 26:42.12 | 3:21.43 | 120162 | 135279
7 | 30:03.55 | 5:14.60 | 135280 | 158889
8 | 35:18.40 | 4:42.35 | 158890 | 180074
Характеристики диапазона извлечения и сообщения об ошибках
Выбранный диапазон
Имя файла E:\Музыка (Lossless)\Ария\1991 - Кровь За Кровь\Ария - Кровь За Кровь.wav
Пиковый уровень 89.0 %
Качество диапазона 100.0 %
CRC копии E41FE873
Копирование... OK
Ошибок не произошло
AccurateRip: сводка
Трек 1 точное извлечение (доверие 3) [545D6008]
Трек 2 точное извлечение (доверие 3) [E07FE9DE]
Трек 3 точное извлечение (доверие 3) [9686B7D2]
Трек 4 точное извлечение (доверие 3) [E011122F]
Трек 5 точное извлечение (доверие 3) [C2892A11]
Трек 6 точное извлечение (доверие 3) [300246E5]
Трек 7 точное извлечение (доверие 3) [CC1D1319]
Трек 8 точное извлечение (доверие 3) [E2CF0097]
Все треки извлечены точно
Конец отчёта

Ночь Короче Дня (1995)

01. Рабство Иллюзий (5:51)
02. Паранойя (5:00)
03. Ангельская Пыль (6:01)
04. Уходи, И Не Возвращайся! (3:51)
05. Король Дороги (4:18)
06. Возьми Моё Сердце (4:06)
07. Зверь (3:45)
08. Дух Войны (4:59)
09. Ночь Короче Дня (7:15)

Отчёт EAC

Exact Audio Copy V0.99 prebeta 3 from 28. July 2007
Отчёт EAC об извлечении, выполненном 4. февраля 2008, 22:21
Ария / Ночь Короче Дня
Дисковод: Optiarc DVD RW AD-7173A Adapter: 4 ID: 0
Режим чтения : Достоверность
Использование точного потока : Да
Отключение кэша аудио : Да
Использование указателей C2 : Нет
Коррекция смещения при чтении : 48
Способность читать области Lead-in и Lead-out : Нет
Заполнение пропущенных сэмплов тишиной : Да
Удаление блоков с тишиной в начале и конце : Нет
При вычислениях CRC использовались нулевые сэмплы : Да
Интерфейс : Встроенный Win32-интерфейс для Win NT/2000
Выходной формат : Внутренние WAV-операции
Формат сэмплов : 44.100 Гц; 16 бит; стерео
TOC извлечённого CD
Трек | Старт | Длительность | Начальный сектор | Конечный сектор
---------------------------------------------------------------------
1 | 0:00.00 | 5:51.32 | 0 | 26356
2 | 5:51.32 | 4:59.60 | 26357 | 48841
3 | 10:51.17 | 6:00.53 | 48842 | 75894
4 | 16:51.70 | 3:51.17 | 75895 | 93236
5 | 20:43.12 | 4:17.38 | 93237 | 112549
6 | 25:00.50 | 4:06.25 | 112550 | 131024
7 | 29:07.00 | 3:44.57 | 131025 | 147881
8 | 32:51.57 | 4:58.63 | 147882 | 170294
9 | 37:50.45 | 7:14.67 | 170295 | 202911
Характеристики диапазона извлечения и сообщения об ошибках
Выбранный диапазон
Имя файла E:\Музыка (Lossless)\Ария\1995 - Ночь Короче Дня\Ария - Ночь Короче Дня.wav
Пиковый уровень 94.4 %
Качество диапазона 100.0 %
CRC копии 6CCEF5B4
Копирование... OK
Ошибок не произошло
AccurateRip: сводка
Трек 1 точность не определена (достоверность 1) [AB703068], AccurateRip вернул [DFD23388]
Трек 2 точность не определена (достоверность 1) [1F7A1930], AccurateRip вернул [928F5469]
Трек 3 точность не определена (достоверность 1) [DC65EF8B], AccurateRip вернул [F8301C75]
Трек 4 точность не определена (достоверность 1) [BE38AA83], AccurateRip вернул [22081FE5]
Трек 5 точность не определена (достоверность 1) [098BA3AA], AccurateRip вернул [919CCA08]
Трек 6 точность не определена (достоверность 1) [BB0FFC15], AccurateRip вернул [D9DCF484]
Трек 7 точность не определена (достоверность 1) [A4463DEB], AccurateRip вернул [07469DE8]
Трек 8 точность не определена (достоверность 1) [CDA63ABC], AccurateRip вернул [216F79C8]
Трек 9 точность не определена (достоверность 1) [BD8836FC], AccurateRip вернул [1C11E49F]
Ни один трек не прошёл проверки на точность
В вашей базе может быть иной вариант штамповки диска
Конец отчёта

Генератор Зла (1998)

01. Смотри! (4:28)
02. Грязь (4:44)
03. Дезертир (6:30)
04. Пытка Тишиной (5:52)
05. Беги За Солнцем (6:12)
06. Обман (5:18)
07. Отшельник (5:38)
08. Закат (4:51)
09. Дьявольский Зной (4:54)
10. Замкнутый Круг (6:48)

Отчёт EAC

Exact Audio Copy V0.99 prebeta 3 from 28. July 2007
Отчёт EAC об извлечении, выполненном 5. февраля 2008, 13:01
Ария / Генератор Зла
Дисковод: Optiarc DVD RW AD-7173A Adapter: 4 ID: 0
Режим чтения : Достоверность
Использование точного потока : Да
Отключение кэша аудио : Да
Использование указателей C2 : Нет
Коррекция смещения при чтении : 48
Способность читать области Lead-in и Lead-out : Нет
Заполнение пропущенных сэмплов тишиной : Да
Удаление блоков с тишиной в начале и конце : Нет
При вычислениях CRC использовались нулевые сэмплы : Да
Интерфейс : Встроенный Win32-интерфейс для Win NT/2000
Выходной формат : Внутренние WAV-операции
Формат сэмплов : 44.100 Гц; 16 бит; стерео
TOC извлечённого CD
Трек | Старт | Длительность | Начальный сектор | Конечный сектор
---------------------------------------------------------------------
1 | 0:00.10 | 4:28.14 | 10 | 20123
2 | 4:28.24 | 4:43.56 | 20124 | 41404
3 | 9:12.05 | 6:29.64 | 41405 | 70643
4 | 15:41.69 | 5:52.13 | 70644 | 97056
5 | 21:34.07 | 6:11.63 | 97057 | 124944
6 | 27:45.70 | 5:17.55 | 124945 | 148774
7 | 33:03.50 | 5:37.45 | 148775 | 174094
8 | 38:41.20 | 4:50.47 | 174095 | 195891
9 | 43:31.67 | 4:53.42 | 195892 | 217908
10 | 48:25.34 | 6:47.72 | 217909 | 248505
Характеристики диапазона извлечения и сообщения об ошибках
Выбранный диапазон
Имя файла E:\Музыка (Lossless)\Ария\1998 - Генератор Зла\Ария - Генератор Зла.wav
Пиковый уровень 99.9 %
Качество диапазона 100.0 %
CRC копии D48DF939
Копирование... OK
Ошибок не произошло
AccurateRip: сводка
Трек 1 нет в базе данных
Трек 2 нет в базе данных
Трек 3 нет в базе данных
Трек 4 нет в базе данных
Трек 5 нет в базе данных
Трек 6 нет в базе данных
Трек 7 нет в базе данных
Трек 8 нет в базе данных
Трек 9 нет в базе данных
Трек 10 нет в базе данных
Ни одного трека нет в базе AccurateRip
Конец отчёта

Химера (2001)

01. Химера (4:39)
02. Небо Тебя Найдёт (5:31)
03. Я Не Сошёл С Ума (6:25)
04. Вампир (5:30)
05. Горящая Стрела (4:11)
06. Штиль (5:36)
07. Путь В Никуда (5:28)
08. Ворон (5:45)
09. Осколок Льда (5:26)
10. Тебе Дадут Знак (8:53)

Отчёт EAC

Exact Audio Copy V0.99 prebeta 3 from 28. July 2007
Отчёт EAC об извлечении, выполненном 5. февраля 2008, 23:03
Ария / Химера
Дисковод: Optiarc DVD RW AD-7173A Adapter: 4 ID: 0
Режим чтения : Достоверность
Использование точного потока : Да
Отключение кэша аудио : Да
Использование указателей C2 : Нет
Коррекция смещения при чтении : 48
Способность читать области Lead-in и Lead-out : Нет
Заполнение пропущенных сэмплов тишиной : Да
Удаление блоков с тишиной в начале и конце : Нет
При вычислениях CRC использовались нулевые сэмплы : Да
Интерфейс : Встроенный Win32-интерфейс для Win NT/2000
Выходной формат : Внутренние WAV-операции
Формат сэмплов : 44.100 Гц; 16 бит; стерео
TOC извлечённого CD
Трек | Старт | Длительность | Начальный сектор | Конечный сектор
---------------------------------------------------------------------
1 | 0:00.00 | 4:39.37 | 0 | 20961
2 | 4:39.37 | 5:31.36 | 20962 | 45822
3 | 10:10.73 | 6:25.10 | 45823 | 74707
4 | 16:36.08 | 5:30.13 | 74708 | 99470
5 | 22:06.21 | 4:10.41 | 99471 | 118261
6 | 26:16.62 | 5:35.40 | 118262 | 143426
7 | 31:52.27 | 5:28.36 | 143427 | 168062
8 | 37:20.63 | 5:44.68 | 168063 | 193930
9 | 43:05.56 | 5:25.54 | 193931 | 218359
10 | 48:31.35 | 8:53.36 | 218360 | 258370
Характеристики диапазона извлечения и сообщения об ошибках
Выбранный диапазон
Имя файла E:\Музыка (Lossless)\Ария\2001 - Химера\Ария - Химера.wav
Пиковый уровень 100.0 %
Качество диапазона 99.9 %
CRC копии 665C5A8E
Копирование... OK
Ошибок не произошло
AccurateRip: сводка
Трек 1 точное извлечение (доверие 1) [BE7F78A5]
Трек 2 точное извлечение (доверие 1) [8CE5E47F]
Трек 3 точное извлечение (доверие 1) [0748C56B]
Трек 4 точное извлечение (доверие 1) [F7D125E1]
Трек 5 точное извлечение (доверие 1) [89698E8E]
Трек 6 точное извлечение (доверие 1) [779F4A1B]
Трек 7 точное извлечение (доверие 1) [63BFA63E]
Трек 8 точное извлечение (доверие 1) [936848D7]
Трек 9 точное извлечение (доверие 1) [6809C8F1]
Трек 10 точное извлечение (доверие 1) [E976EBDF]
Все треки извлечены точно
Конец отчёта

Крещение Огнём (2003)

01. Патриот (4:20)
02. Крещение Огнём (6:10)
03. Колизей (6:32)
04. Палач (8:42)
05. Твой Новый Мир (4:08)
06. Там Высоко... (5:41)
07. Белый Флаг (4:44)
08. Битва (5:05)
09. Бал У Князя Тьмы (6:00)-

Видеоклип «Колизей»

Формат: MPEG-PS
Видеокодек: MPEG Video
Аудиокодек: MPEG Audio
Видео: 354x288, 15 fps, MPEG Video, 701 Kbps, 0.277 Bits/(Pixel*Frame)
Аудио: 44.1 kHz, MPEG Audio, 2 channels, 128 Kbps
Продолжительность: 06:07-

Скриншоты

Отчёт EAC

Exact Audio Copy V0.99 prebeta 4 from 23. January 2008
Отчёт EAC об извлечении, выполненном 27. апреля 2008, 16:37
Ария / Крещение Огнём
Дисковод: Optiarc DVD RW AD-7173A Adapter: 4 ID: 0
Режим чтения : Достоверность
Использование точного потока : Да
Отключение кэша аудио : Да
Использование указателей C2 : Нет
Коррекция смещения при чтении : 48
Способность читать области Lead-in и Lead-out : Нет
Заполнение пропущенных сэмплов тишиной : Да
Удаление блоков с тишиной в начале и конце : Нет
При вычислениях CRC использовались нулевые сэмплы : Да
Интерфейс : Встроенный Win32-интерфейс для Win NT/2000
Выходной формат : Внутренние WAV-операции
Формат сэмплов : 44.100 Гц; 16 бит; стерео
TOC извлечённого CD
Трек | Старт | Длительность | Начальный сектор | Конечный сектор
---------------------------------------------------------------------
1 | 0:00.00 | 4:20.07 | 0 | 19506
2 | 4:20.07 | 6:09.57 | 19507 | 47238
3 | 10:29.64 | 6:32.28 | 47239 | 76666
4 | 17:02.17 | 8:42.01 | 76667 | 115817
5 | 25:44.18 | 4:07.60 | 115818 | 134402
6 | 29:52.03 | 5:40.51 | 134403 | 159953
7 | 35:32.54 | 4:44.02 | 159954 | 181255
8 | 40:16.56 | 5:04.73 | 181256 | 204128
9 | 45:21.54 | 5:59.52 | 204129 | 231105
10 | 53:53.31 | 4:22.58 | 242506 | 262213
Характеристики диапазона извлечения и сообщения об ошибках
Выбранный диапазон
Имя файла E:\Музыка (Lossless)\Ария\2003 - Крещение Огнём\Ария - Крещение Огнём.wav
Пиковый уровень 97.7 %
Качество диапазона 100.0 %
CRC копии C040B008
Копирование... OK
Ошибок не произошло
AccurateRip: сводка
Трек 1 точное извлечение (доверие 5) [5C9385A7]
Трек 2 точное извлечение (доверие 3) [6FFE7B83]
Трек 3 точное извлечение (доверие 3) [7A295AF1]
Трек 4 точное извлечение (доверие 3) [D34172E7]
Трек 5 точное извлечение (доверие 3) [E656E6A9]
Трек 6 точное извлечение (доверие 3) [7BC45C25]
Трек 7 точное извлечение (доверие 3) [3ACEF227]
Трек 8 точное извлечение (доверие 3) [5A386848]
Трек 9 точное извлечение (доверие 2) [6B137697]
Все треки извлечены точно
Конец отчёта

Армагеддон (2006)

01. Последний Закат (5:01)
02. Меченый Злом (6:06)
03. Страж Империи (4:44)
04. Новый Крестовый Поход (4:54)
05. Мессия (4:39)
06. Кровь Королей (9:00)
07. Викинг (5:49)
08. Чужой (5:04)
09. Свет Былой Любви (4:18)
10. Твой День (5:20)

Отчёт EAC

Exact Audio Copy V0.99 prebeta 4 from 23. January 2008
Отчёт EAC об извлечении, выполненном 27. апреля 2008, 1:09
Ария / Армагеддон
Дисковод: Optiarc DVD RW AD-7173A Adapter: 4 ID: 0
Режим чтения : Достоверность
Использование точного потока : Да
Отключение кэша аудио : Да
Использование указателей C2 : Нет
Коррекция смещения при чтении : 48
Способность читать области Lead-in и Lead-out : Нет
Заполнение пропущенных сэмплов тишиной : Да
Удаление блоков с тишиной в начале и конце : Нет
При вычислениях CRC использовались нулевые сэмплы : Да
Интерфейс : Встроенный Win32-интерфейс для Win NT/2000
Выходной формат : Внутренние WAV-операции
Формат сэмплов : 44.100 Гц; 16 бит; стерео
TOC извлечённого CD
Трек | Старт | Длительность | Начальный сектор | Конечный сектор
---------------------------------------------------------------------
1 | 0:00.00 | 5:00.72 | 0 | 22571
2 | 5:00.72 | 6:05.42 | 22572 | 49988
3 | 11:06.39 | 4:43.47 | 49989 | 71260
4 | 15:50.11 | 4:53.45 | 71261 | 93280
5 | 20:43.56 | 4:38.39 | 93281 | 114169
6 | 25:22.20 | 9:00.13 | 114170 | 154682
7 | 34:22.33 | 5:48.51 | 154683 | 180833
8 | 40:11.09 | 5:03.44 | 180834 | 203602
9 | 45:14.53 | 4:18.15 | 203603 | 222967
10 | 49:32.68 | 5:19.47 | 222968 | 246939
Характеристики диапазона извлечения и сообщения об ошибках
Выбранный диапазон
Имя файла E:\Музыка (Lossless)\Ария\2006 - Армагеддон\Ария - Армагеддон.wav
Пиковый уровень 100.0 %
Качество диапазона 99.9 %
CRC копии 0FDAC6BE
Копирование... OK
Ошибок не произошло
AccurateRip: сводка
Трек 1 точность не определена (достоверность 2) [28EFAAC9], AccurateRip вернул [4C744EA6]
Трек 2 точность не определена (достоверность 2) [6102A216], AccurateRip вернул [5BA02D18]
Трек 3 точность не определена (достоверность 2) [7A372B65], AccurateRip вернул [FA74121D]
Трек 4 точность не определена (достоверность 2) [54ED989D], AccurateRip вернул [10BFEEFA]
Трек 5 точность не определена (достоверность 2) [D4E4E1FA], AccurateRip вернул [07492E40]
Трек 6 точность не определена (достоверность 2) [8E7E9F37], AccurateRip вернул [7D22B87E]
Трек 7 точность не определена (достоверность 2) [4BD03957], AccurateRip вернул [5620D1AE]
Трек 8 точность не определена (достоверность 2) [73CA8170], AccurateRip вернул [0F01DD81]
Трек 9 точность не определена (достоверность 2) [22A62B69], AccurateRip вернул [7E86DC2C]
Трек 10 точность не определена (достоверность 2) [6AB59EEC], AccurateRip вернул [EC418574]
Ни один трек не прошёл проверки на точность
В вашей базе может быть иной вариант штамповки диска
Конец отчёта

Феникс (2011)

01. Чёрный Квадрат (5:20)
02. Равновесие Сил (4:12)
03. История Одного Убийцы (6:22)
04. Чёрная Легенда (8:02)
05. Бои Без Правил (6:53)
06. Феникс (6:34)
07. Симфония Огня (5:30)
08. Аттила (7:56)
09. Дальний Свет (4:56)
10. Реквием (4:25)

Отчёт EAC

Exact Audio Copy V1.0 beta 3 from 29. August 2011
Отчёт EAC об извлечении, выполненном 25. декабря 2011, 23:56
Ария / Феникс
Дисковод: Optiarc DVD RW AD-7173A Adapter: 0 ID: 0
Режим чтения : Достоверность
Использование точного потока : Да
Отключение кэша аудио : Да
Использование указателей C2 : Нет
Коррекция смещения при чтении : 48
Способность читать области Lead-in и Lead-out : Да
Заполнение пропущенных сэмплов тишиной : Да
Удаление блоков с тишиной в начале и конце : Нет
При вычислениях CRC использовались нулевые сэмплы : Да
Интерфейс : Встроенный Win32-интерфейс для Win NT/2000
Выходной формат : Пользовательский кодировщик
Выбранный битрейт : 768 kBit/s
Качество : Высокий
Добавление ID3-тега : Нет
Утилита сжатия : D:\Program Files (x86)\Exact Audio Copy\FLAC\FLAC.EXE
Дополнительные параметры : -8 -V -T "ARTIST=%artist%" -T "TITLE=%title%" -T "ALBUM=%albumtitle%" -T "DATE=%year%" -T "TRACKNUMBER=%tracknr%" -T "GENRE=%genre%" -T "COMMENT=%comment%" -T "BAND=%albuminterpret%" -T "ALBUMARTIST=%albuminterpret%" -T "COMPOSER=%composer%" %haslyrics%--tag-from-file=LYRICS="%lyricsfile%"%haslyrics% -T "DISCNUMBER=%cdnumber%" -T "TOTALDISCS=%totalcds%" -T "TOTALTRACKS=%numtracks%" %hascover%--picture="%coverfile%"%hascover% %source% -o %dest%
TOC извлечённого CD
Трек | Старт | Длительность | Начальный сектор | Конечный сектор
---------------------------------------------------------------------
1 | 0:00.00 | 5:20.17 | 0 | 24016
2 | 5:20.17 | 4:13.51 | 24017 | 43042
3 | 9:33.68 | 6:23.00 | 43043 | 71767
4 | 15:56.68 | 8:03.36 | 71768 | 108028
5 | 24:00.29 | 6:54.34 | 108029 | 139112
6 | 30:54.63 | 6:35.58 | 139113 | 168795
7 | 37:30.46 | 5:30.30 | 168796 | 193575
8 | 43:01.01 | 7:56.59 | 193576 | 229334
9 | 50:57.60 | 4:57.17 | 229335 | 251626
10 | 55:55.02 | 4:25.33 | 251627 | 271534
Характеристики диапазона извлечения и сообщения об ошибках
Выбранный диапазон
Имя файла D:\Музыка (Lossless)\Ария\2011 - Феникс\Ария - Феникс.wav
Пиковый уровень 99.8 %
Скорость извлечения 5.2 X
Качество диапазона 99.9 %
CRC копии EFE90BA5
Копирование... OK
Ошибок не произошло
AccurateRip: сводка
Трек 1 отсутствует в базе данных
Трек 2 отсутствует в базе данных
Трек 3 отсутствует в базе данных
Трек 4 отсутствует в базе данных
Трек 5 отсутствует в базе данных
Трек 6 отсутствует в базе данных
Трек 7 отсутствует в базе данных
Трек 8 отсутствует в базе данных
Трек 9 отсутствует в базе данных
Трек 10 отсутствует в базе данных
Ни одного трека нет в базе AccurateRip
Конец отчёта
==== Контрольная сумма отчёта 8933D2DB31707B635CE9F5A6A5976BA727727AB1B927EC7052175A1CB2B8A7B9 ====
Синглы, EP

Tribute To Harley-Davidson (1999)

01. Пробил Час (5:22)
02. Беспечный Ангел (4:02)
03. Герой Асфальта (Версия 1999 года) (5:17)
04. Беспечный Ангел (Karaoke Version) (3:56)

Отчёт EAC

Exact Audio Copy V0.99 prebeta 3 from 28. July 2007
Отчёт EAC об извлечении, выполненном 5. февраля 2008, 23:15
Ария / Tribute To Harley-Davison (EP)
Дисковод: Optiarc DVD RW AD-7173A Adapter: 4 ID: 0
Режим чтения : Достоверность
Использование точного потока : Да
Отключение кэша аудио : Да
Использование указателей C2 : Нет
Коррекция смещения при чтении : 48
Способность читать области Lead-in и Lead-out : Нет
Заполнение пропущенных сэмплов тишиной : Да
Удаление блоков с тишиной в начале и конце : Нет
При вычислениях CRC использовались нулевые сэмплы : Да
Интерфейс : Встроенный Win32-интерфейс для Win NT/2000
Выходной формат : Внутренние WAV-операции
Формат сэмплов : 44.100 Гц; 16 бит; стерео
TOC извлечённого CD
Трек | Старт | Длительность | Начальный сектор | Конечный сектор
---------------------------------------------------------------------
1 | 0:00.00 | 1:07.58 | 0 | 5082
2 | 1:07.58 | 5:22.27 | 5083 | 29259
3 | 6:30.10 | 4:01.72 | 29260 | 47406
4 | 10:32.07 | 5:17.36 | 47407 | 71217
5 | 15:49.43 | 3:56.36 | 71218 | 88953
Характеристики диапазона извлечения и сообщения об ошибках
Выбранный диапазон
Имя файла E:\Музыка (Lossless)\Ария\1999 - Tribute To Harley-Davidson (EP)\Ария - Tribute To Harley-Davison (EP).wav
Пиковый уровень 98.8 %
Качество диапазона 100.0 %
CRC копии 6548318C
Копирование... OK
Ошибок не произошло
AccurateRip: сводка
Трек 2 нет в базе данных
Трек 3 нет в базе данных
Трек 4 нет в базе данных
Трек 5 нет в базе данных
Ни одного трека нет в базе AccurateRip
Конец отчёта

Потерянный Рай (2000)

01. Потерянный Рай (5:57)
02. Потерянный Рай (С симфоническим оркестром) (5:36)-

Видеоклип «Потерянный Рай»

Формат: QuickTime
Видеокодек: Sorenson Media Video 1 (Apple QuickTime 3)
Аудиокодек: ima4
Видео: 354x228, 15 fps, Apple QuickTime 3, 695 Kbps, 0.574 Bits/(Pixel*Frame)
Аудио: 44.1 kHz, ima4, 2 channels, 352.8 Kbps
Продолжительность: 04:41-

Скриншоты

Отчёт EAC

Exact Audio Copy V0.99 prebeta 3 from 28. July 2007
Отчёт EAC об извлечении, выполненном 8. февраля 2008, 22:54
Ария / Потерянный Рай (Single)
Дисковод: Optiarc DVD RW AD-7173A Adapter: 4 ID: 0
Режим чтения : Достоверность
Использование точного потока : Да
Отключение кэша аудио : Да
Использование указателей C2 : Нет
Коррекция смещения при чтении : 48
Способность читать области Lead-in и Lead-out : Нет
Заполнение пропущенных сэмплов тишиной : Да
Удаление блоков с тишиной в начале и конце : Нет
При вычислениях CRC использовались нулевые сэмплы : Да
Интерфейс : Встроенный Win32-интерфейс для Win NT/2000
Выходной формат : Внутренние WAV-операции
Формат сэмплов : 44.100 Гц; 16 бит; стерео
TOC извлечённого CD
Трек | Старт | Длительность | Начальный сектор | Конечный сектор
---------------------------------------------------------------------
1 | 0:00.00 | 6:12.22 | 0 | 27921
2 | 6:12.22 | 5:56.53 | 27922 | 54674
3 | 12:09.00 | 5:35.68 | 54675 | 79867
Характеристики диапазона извлечения и сообщения об ошибках
Выбранный диапазон
Имя файла E:\Музыка (Lossless)\Ария\2000 - Потерянный Рай (Single)\Ария - Потерянный Рай (Single).wav
Пиковый уровень 100.0 %
Качество диапазона 100.0 %
CRC копии AE5B037B
Копирование... OK
Ошибок не произошло
AccurateRip: сводка
Трек 2 нет в базе данных
Трек 3 нет в базе данных
Ни одного трека нет в базе AccurateRip
Конец отчёта

Колизей (2002)

01. Колизей (6:32)
02. Антихрист (4:59)
03. Обман (5:10)

Отчёт EAC

Exact Audio Copy V0.99 prebeta 3 from 28. July 2007
Отчёт EAC об извлечении, выполненном 24. апреля 2008, 20:21
Ария / Колизей (Single)
Дисковод: Optiarc DVD RW AD-7173A Adapter: 4 ID: 0
Режим чтения : Достоверность
Использование точного потока : Да
Отключение кэша аудио : Да
Использование указателей C2 : Нет
Коррекция смещения при чтении : 48
Способность читать области Lead-in и Lead-out : Нет
Заполнение пропущенных сэмплов тишиной : Да
Удаление блоков с тишиной в начале и конце : Нет
При вычислениях CRC использовались нулевые сэмплы : Да
Интерфейс : Встроенный Win32-интерфейс для Win NT/2000
Выходной формат : Внутренние WAV-операции
Формат сэмплов : 44.100 Гц; 16 бит; стерео
TOC извлечённого CD
Трек | Старт | Длительность | Начальный сектор | Конечный сектор
---------------------------------------------------------------------
1 | 0:00.00 | 6:32.17 | 0 | 29416
2 | 6:32.17 | 4:59.25 | 29417 | 51866
3 | 11:31.42 | 5:10.14 | 51867 | 75130
Характеристики диапазона извлечения и сообщения об ошибках
Выбранный диапазон
Имя файла E:\Музыка (Lossless)\Ария\2002 - Колизей (Single)\Ария - Колизей (Single).wav
Пиковый уровень 99.8 %
Качество диапазона 100.0 %
CRC копии 357550A9
Копирование... OK
Ошибок не произошло
AccurateRip: сводка
Трек 1 нет в базе данных
Трек 2 нет в базе данных
Трек 3 нет в базе данных
Ни одного трека нет в базе AccurateRip
Конец отчёта

Чужой (2006)

01. Чужой (5:04)
02. Там Высоко... (Live) (5:44)
03. Воля И Разум (4:34)-

Видеоклип «Там Высоко...»

Формат: Windows Media
Видеокодек: Windows Media Video 9
Аудиокодек: Windows Media Audio
Видео: 640x480, 30 fps, Windows Media Video 9, 3 050 Kbps, 0.331 Bits/(Pixel*Frame)
Аудио: 44.1 kHz, Windows Media Audio, 2 channels, 96.0 kbps
Продолжительность: 04:41-

Скриншоты

Отчёт EAC

Exact Audio Copy V0.99 prebeta 4 from 23. January 2008
Отчёт EAC об извлечении, выполненном 30. октября 2008, 23:48
Ария / Чужой (Single)
Дисковод: Optiarc DVD RW AD-7173A Adapter: 4 ID: 0
Режим чтения : Достоверность
Использование точного потока : Да
Отключение кэша аудио : Да
Использование указателей C2 : Нет
Коррекция смещения при чтении : 48
Способность читать области Lead-in и Lead-out : Нет
Заполнение пропущенных сэмплов тишиной : Да
Удаление блоков с тишиной в начале и конце : Нет
При вычислениях CRC использовались нулевые сэмплы : Да
Интерфейс : Встроенный Win32-интерфейс для Win NT/2000
Выходной формат : Внутренние WAV-операции
Формат сэмплов : 44.100 Гц; 16 бит; стерео
TOC извлечённого CD
Трек | Старт | Длительность | Начальный сектор | Конечный сектор
---------------------------------------------------------------------
1 | 0:00.00 | 5:04.29 | 0 | 22828
2 | 5:04.29 | 5:44.27 | 22829 | 48655
3 | 10:48.56 | 4:33.65 | 48656 | 69195
4 | 17:54.46 | 12:05.27 | 80596 | 134997
Характеристики диапазона извлечения и сообщения об ошибках
Выбранный диапазон
Имя файла E:\Музыка (Lossless)\Новая папка\Ария - Чужой (Single).wav
Пиковый уровень 99.2 %
Качество диапазона 100.0 %
CRC копии 779670B9
Копирование... OK
Ошибок не произошло
AccurateRip: сводка
Трек 1 точное извлечение (доверие 3) [E08DE111]
Трек 2 точное извлечение (доверие 3) [72D51563]
Трек 3 точное извлечение (доверие 2) [FBCF18A7]
Все треки извлечены точно
Конец отчёта

Поле Битвы (2009)

01. Поле Битвы (5:44)
02. На Крыльях Ветра (4:44)
03. Попурри (10:11)

Отчёт EAC

Exact Audio Copy V0.99 prebeta 5 from 4. May 2009
Отчёт EAC об извлечении, выполненном 15. ноября 2009, 16:36
Ария / Поле Битвы (Single)
Дисковод: Optiarc DVD RW AD-7173A Adapter: 0 ID: 0
Режим чтения : Достоверность
Использование точного потока : Да
Отключение кэша аудио : Да
Использование указателей C2 : Нет
Коррекция смещения при чтении : 48
Способность читать области Lead-in и Lead-out : Нет
Заполнение пропущенных сэмплов тишиной : Да
Удаление блоков с тишиной в начале и конце : Нет
При вычислениях CRC использовались нулевые сэмплы : Да
Интерфейс : Встроенный Win32-интерфейс для Win NT/2000
Выходной формат : Внутренние WAV-операции
Формат сэмплов : 44.100 Гц; 16 бит; стерео
TOC извлечённого CD
Трек | Старт | Длительность | Начальный сектор | Конечный сектор
---------------------------------------------------------------------
1 | 0:00.00 | 5:44.41 | 0 | 25840
2 | 5:44.41 | 4:44.33 | 25841 | 47173
3 | 10:28.74 | 10:11.67 | 47174 | 93065
Характеристики диапазона извлечения и сообщения об ошибках
Выбранный диапазон
Имя файла E:\Музыка (Lossless)\Ария\2009 - Поле Битвы (Single)\Ария - Поле Битвы (Single).wav
Пиковый уровень 100.0 %
Качество диапазона 100.0 %
CRC копии 1A770BAE
Копирование... OK
Ошибок не произошло
AccurateRip: сводка
Трек 1 нет в базе данных
Трек 2 нет в базе данных
Трек 3 нет в базе данных
Ни одного трека нет в базе AccurateRip
Конец отчёта
Сборники

Легенды Русского Рока (1997)

01. Волонтёр (6:09)
02. Тореро (5:34)
03. Воля И Разум (4:32)
04. Дай Руку Мне (5:08)
05. Герой Асфальта (5:04)
06. Улица Роз (5:57)
07. Бой Продолжается (6:08)
08. Игра С Огнём (9:03)
09. Прощай, Норфолк! (5:17)
10. Антихрист (5:04)
11. Кровь За кровь (7:43)
12. Возьми Моё Сердце (4:05)
13. Король Дороги (4:15)

Отчёт EAC

Exact Audio Copy V0.99 prebeta 3 from 28. July 2007
Отчёт EAC об извлечении, выполненном 5. февраля 2008, 0:47
Ария / Легенды Русского Рока (Compilation)
Дисковод: Optiarc DVD RW AD-7173A Adapter: 4 ID: 0
Режим чтения : Достоверность
Использование точного потока : Да
Отключение кэша аудио : Да
Использование указателей C2 : Нет
Коррекция смещения при чтении : 48
Способность читать области Lead-in и Lead-out : Нет
Заполнение пропущенных сэмплов тишиной : Да
Удаление блоков с тишиной в начале и конце : Нет
При вычислениях CRC использовались нулевые сэмплы : Да
Интерфейс : Встроенный Win32-интерфейс для Win NT/2000
Выходной формат : Внутренние WAV-операции
Формат сэмплов : 44.100 Гц; 16 бит; стерео
TOC извлечённого CD
Трек | Старт | Длительность | Начальный сектор | Конечный сектор
---------------------------------------------------------------------
1 | 0:00.10 | 6:08.68 | 10 | 27677
2 | 6:09.03 | 5:33.73 | 27678 | 52725
3 | 11:43.01 | 4:32.25 | 52726 | 73150
4 | 16:15.26 | 5:08.33 | 73151 | 96283
5 | 21:23.59 | 5:04.10 | 96284 | 119093
6 | 26:27.69 | 5:57.00 | 119094 | 145868
7 | 32:24.69 | 6:08.16 | 145869 | 173484
8 | 38:33.10 | 9:03.04 | 173485 | 214213
9 | 47:36.14 | 5:17.34 | 214214 | 238022
10 | 52:53.48 | 5:03.71 | 238023 | 260818
11 | 57:57.44 | 7:43.11 | 260819 | 295554
12 | 65:40.55 | 4:05.28 | 295555 | 313957
13 | 69:46.08 | 4:14.57 | 313958 | 333064
Характеристики диапазона извлечения и сообщения об ошибках
Выбранный диапазон
Имя файла E:\Музыка (Lossless)\Ария\1997 - Легенды Русского Рока (Compilation)\Ария - Легенды Русского Рока (Compilation).wav
Пиковый уровень 97.7 %
Качество диапазона 100.0 %
CRC копии A881A137
Копирование... OK
Ошибок не произошло
AccurateRip: сводка
Трек 1 нет в базе данных
Трек 2 нет в базе данных
Трек 3 нет в базе данных
Трек 4 нет в базе данных
Трек 5 нет в базе данных
Трек 6 нет в базе данных
Трек 7 нет в базе данных
Трек 8 нет в базе данных
Трек 9 нет в базе данных
Трек 10 нет в базе данных
Трек 11 нет в базе данных
Трек 12 нет в базе данных
Трек 13 нет в базе данных
Ни одного трека нет в базе AccurateRip
Конец отчёта

Лучшие Песни (1999)

Диск 1
01. Что Вы Сделали С Вашей Мечтой? (5:20)
02. Герой Асфальта (4:59)
03. Раскачаем Этот Мир (5:57)
04. Воля И Разум (4:34)
05. Бивни Чёрных Скал (4:50)
06. Улица Роз (5:55)
07. Баллада О Древнерусском Воине (8:31)
08. Это Рок (5:54)
09. Встань, Страх Преодолей (4:14)
10. Игра С Огнём (9:01)
Диск 2
01. Прощай, Норфолк! (5:18)
02. Грязь (4:43)
03. Возьми Моё Сердце (4:05)
04. Отшельник (5:37)
05. Кровь За Кровь (7:41)
06. Дух Войны (4:57)
07. Ангельская Пыль (6:00)
08. Дезертир (6:29)
09. Обман (5:17)
10. Ночь Короче Дня (7:15)-

Отчёт EAC

Диск 1

Exact Audio Copy V0.99 prebeta 3 from 28. July 2007
Отчёт EAC об извлечении, выполненном 13. февраля 2008, 13:40
Ария / Лучшие Песни (Compilation) (CD 1)
Дисковод: Optiarc DVD RW AD-7173A Adapter: 4 ID: 0
Режим чтения : Достоверность
Использование точного потока : Да
Отключение кэша аудио : Да
Использование указателей C2 : Нет
Коррекция смещения при чтении : 48
Способность читать области Lead-in и Lead-out : Нет
Заполнение пропущенных сэмплов тишиной : Да
Удаление блоков с тишиной в начале и конце : Нет
При вычислениях CRC использовались нулевые сэмплы : Да
Интерфейс : Встроенный Win32-интерфейс для Win NT/2000
Выходной формат : Внутренние WAV-операции
Формат сэмплов : 44.100 Гц; 16 бит; стерео
TOC извлечённого CD
Трек | Старт | Длительность | Начальный сектор | Конечный сектор
---------------------------------------------------------------------
1 | 0:00.10 | 5:19.42 | 10 | 23976
2 | 5:19.52 | 4:58.49 | 23977 | 46375
3 | 10:18.26 | 5:57.36 | 46376 | 73186
4 | 16:15.62 | 4:34.16 | 73187 | 93752
5 | 20:50.03 | 4:49.62 | 93753 | 115489
6 | 25:39.65 | 5:55.31 | 115490 | 142145
7 | 31:35.21 | 8:31.20 | 142146 | 180490
8 | 40:06.41 | 5:53.47 | 180491 | 207012
9 | 46:00.13 | 4:14.07 | 207013 | 226069
10 | 50:14.20 | 9:00.47 | 226070 | 266616
Характеристики диапазона извлечения и сообщения об ошибках
Выбранный диапазон
Имя файла E:\Музыка (Lossless)\Ария\1999 - Лучшие Песни (Compilation) (CD 1)\Ария - Лучшие Песни (Compilation) (CD 1).wav
Пиковый уровень 99.0 %
Качество диапазона 99.9 %
CRC копии 2B323102
Копирование... OK
Ошибок не произошло
AccurateRip: сводка
Трек 1 нет в базе данных
Трек 2 нет в базе данных
Трек 3 нет в базе данных
Трек 4 нет в базе данных
Трек 5 нет в базе данных
Трек 6 нет в базе данных
Трек 7 нет в базе данных
Трек 8 нет в базе данных
Трек 9 нет в базе данных
Трек 10 нет в базе данных
Ни одного трека нет в базе AccurateRip
Конец отчёта

Диск 2

Exact Audio Copy V0.99 prebeta 3 from 28. July 2007
Отчёт EAC об извлечении, выполненном 14. февраля 2008, 0:17
Ария / Лучшие Песни (Compilation) (CD 2)
Дисковод: Optiarc DVD RW AD-7173A Adapter: 4 ID: 0
Режим чтения : Достоверность
Использование точного потока : Да
Отключение кэша аудио : Да
Использование указателей C2 : Нет
Коррекция смещения при чтении : 48
Способность читать области Lead-in и Lead-out : Нет
Заполнение пропущенных сэмплов тишиной : Да
Удаление блоков с тишиной в начале и конце : Нет
При вычислениях CRC использовались нулевые сэмплы : Да
Интерфейс : Встроенный Win32-интерфейс для Win NT/2000
Выходной формат : Внутренние WAV-операции
Формат сэмплов : 44.100 Гц; 16 бит; стерео
TOC извлечённого CD
Трек | Старт | Длительность | Начальный сектор | Конечный сектор
---------------------------------------------------------------------
1 | 0:00.10 | 5:17.70 | 10 | 23854
2 | 5:18.05 | 4:43.06 | 23855 | 45085
3 | 10:01.11 | 4:05.31 | 45086 | 63491
4 | 14:06.42 | 5:36.47 | 63492 | 88738
5 | 19:43.14 | 7:41.28 | 88739 | 123341
6 | 27:24.42 | 4:56.49 | 123342 | 145590
7 | 32:21.16 | 6:00.31 | 145591 | 172621
8 | 38:21.47 | 6:29.36 | 172622 | 201832
9 | 44:51.08 | 5:17.06 | 201833 | 225613
10 | 50:08.14 | 7:14.39 | 225614 | 258202
Характеристики диапазона извлечения и сообщения об ошибках
Выбранный диапазон
Имя файла E:\Музыка (Lossless)\Ария\1999 - Лучшие Песни (Compilation) (CD 2)\Ария - Лучшие Песни (Compilation) (CD 2).wav
Пиковый уровень 100.0 %
Качество диапазона 99.9 %
CRC копии 302BF8DB
Копирование... OK
Ошибок не произошло
AccurateRip: сводка
Трек 1 нет в базе данных
Трек 2 нет в базе данных
Трек 3 нет в базе данных
Трек 4 нет в базе данных
Трек 5 нет в базе данных
Трек 6 нет в базе данных
Трек 7 нет в базе данных
Трек 8 нет в базе данных
Трек 9 нет в базе данных
Трек 10 нет в базе данных
Ни одного трека нет в базе AccurateRip
Конец отчёта

2000 И Одна Ночь (1999)

01. Улица Роз (6:08)
02. Потерянный Рай (5:53)
03. Без Тебя (4:23)
04. Грязь (4:38)
05. Всё, Что Было (5:06)
06. Возьми Моё Сердце (4:13)
07. Уходи, И Не Возвращайся (3:53)
08. Кто Ты? (4:47)
09. Пытка Тишиной (5:29)
10. Искушение (3:57)
11. Мечты (4:31)
12. Закат (3:35)

Отчёт EAC

Exact Audio Copy V0.99 prebeta 3 from 28. July 2007
Отчёт EAC об извлечении, выполненном 5. февраля 2008, 13:18
Ария / 2000 И Одна Ночь
Дисковод: Optiarc DVD RW AD-7173A Adapter: 4 ID: 0
Режим чтения : Достоверность
Использование точного потока : Да
Отключение кэша аудио : Да
Использование указателей C2 : Нет
Коррекция смещения при чтении : 48
Способность читать области Lead-in и Lead-out : Нет
Заполнение пропущенных сэмплов тишиной : Да
Удаление блоков с тишиной в начале и конце : Нет
При вычислениях CRC использовались нулевые сэмплы : Да
Интерфейс : Встроенный Win32-интерфейс для Win NT/2000
Выходной формат : Внутренние WAV-операции
Формат сэмплов : 44.100 Гц; 16 бит; стерео
TOC извлечённого CD
Трек | Старт | Длительность | Начальный сектор | Конечный сектор
---------------------------------------------------------------------
1 | 0:00.10 | 6:08.12 | 10 | 27621
2 | 6:08.22 | 5:53.09 | 27622 | 54105
3 | 12:01.31 | 4:22.53 | 54106 | 73808
4 | 16:24.09 | 4:38.24 | 73809 | 94682
5 | 21:02.33 | 5:05.59 | 94683 | 117616
6 | 26:08.17 | 4:13.29 | 117617 | 136620
7 | 30:21.46 | 3:52.47 | 136621 | 154067
8 | 34:14.18 | 4:46.39 | 154068 | 175556
9 | 39:00.57 | 5:28.58 | 175557 | 200214
10 | 44:29.40 | 3:57.02 | 200215 | 217991
11 | 48:26.42 | 4:31.19 | 217992 | 238335
12 | 52:57.61 | 3:35.26 | 238336 | 254486
Характеристики диапазона извлечения и сообщения об ошибках
Выбранный диапазон
Имя файла E:\Музыка (Lossless)\Ария\1999 - 2000 И Одна Ночь (Compilation)\Ария - 2000 И Одна Ночь (Compilation).wav
Пиковый уровень 100.0 %
Качество диапазона 99.9 %
CRC копии E00D05EC
Копирование... OK
Ошибок не произошло
AccurateRip: сводка
Трек 1 точность не определена (достоверность 1) [04D79533], AccurateRip вернул [A50157EC]
Трек 2 точность не определена (достоверность 1) [3C5D4C70], AccurateRip вернул [D0902DC5]
Трек 3 точность не определена (достоверность 1) [01023E5D], AccurateRip вернул [FF7D34C9]
Трек 4 точность не определена (достоверность 1) [5EF73268], AccurateRip вернул [181C5D10]
Трек 5 точность не определена (достоверность 1) [B6C76B28], AccurateRip вернул [8476DF10]
Трек 6 точность не определена (достоверность 1) [EE91313F], AccurateRip вернул [00DF518A]
Трек 7 точность не определена (достоверность 1) [0EBD71A2], AccurateRip вернул [F87DAC35]
Трек 8 точность не определена (достоверность 1) [D0305D25], AccurateRip вернул [AEA57224]
Трек 9 точность не определена (достоверность 1) [81C29BC3], AccurateRip вернул [E9E474AE]
Трек 10 точность не определена (достоверность 1) [704A1070], AccurateRip вернул [00D368F4]
Трек 11 точность не определена (достоверность 1) [EC76907E], AccurateRip вернул [1E3B7A81]
Трек 12 точность не определена (достоверность 1) [CE5C26FB], AccurateRip вернул [CEC31BF6]
Ни один трек не прошёл проверки на точность
В вашей базе может быть иной вариант штамповки диска
Конец отчёта

Grand Collection (2000)

01. Герой Асфальта (4:58)
02. Улица Роз (5:53)
03. Баллада О Древнерусском Воине (8:28)
04. 1100 (4:51)
05. Воля И Разум (4:32)
06. Что Вы Сделали С Вашей Мечтой? (5:16)
07. На Службе Силы Зла (7:06)
08. Отшельник (5:33)
09. Прощай, Норфолк! (5:15)
10. Мёртвая Зона (6:39)
11. Возьми Моё Сердце (4:03)
12. Грязь (4:39)
13. Ночь Короче Дня (7:13)

Отчёт EAC

Exact Audio Copy V0.99 prebeta 4 from 23. January 2008
Отчёт EAC об извлечении, выполненном 27. апреля 2008, 15:06
Ария / Grand Collection (Compilation)
Дисковод: Optiarc DVD RW AD-7173A Adapter: 4 ID: 0
Режим чтения : Достоверность
Использование точного потока : Да
Отключение кэша аудио : Да
Использование указателей C2 : Нет
Коррекция смещения при чтении : 48
Способность читать области Lead-in и Lead-out : Нет
Заполнение пропущенных сэмплов тишиной : Да
Удаление блоков с тишиной в начале и конце : Нет
При вычислениях CRC использовались нулевые сэмплы : Да
Интерфейс : Встроенный Win32-интерфейс для Win NT/2000
Выходной формат : Внутренние WAV-операции
Формат сэмплов : 44.100 Гц; 16 бит; стерео
TOC извлечённого CD
Трек | Старт | Длительность | Начальный сектор | Конечный сектор
---------------------------------------------------------------------
1 | 0:00.00 | 4:58.29 | 0 | 22378
2 | 4:58.29 | 5:53.35 | 22379 | 48888
3 | 10:51.64 | 8:27.59 | 48889 | 86972
4 | 19:19.48 | 4:51.04 | 86973 | 108801
5 | 24:10.52 | 4:31.45 | 108802 | 129171
6 | 28:42.22 | 5:15.59 | 129172 | 152855
7 | 33:58.06 | 7:05.53 | 152856 | 184783
8 | 41:03.59 | 5:33.29 | 184784 | 209787
9 | 46:37.13 | 5:15.16 | 209788 | 233428
10 | 51:52.29 | 6:38.38 | 233429 | 263316
11 | 58:30.67 | 4:03.02 | 263317 | 281543
12 | 62:33.69 | 4:39.12 | 281544 | 302480
13 | 67:13.06 | 7:13.16 | 302481 | 334971
Характеристики диапазона извлечения и сообщения об ошибках
Выбранный диапазон
Имя файла E:\Музыка (Lossless)\Ария\2000 - Grand Collection (Compilation)\Ария - Grand Collection (Compilation).wav
Пиковый уровень 96.6 %
Качество диапазона 99.9 %
CRC копии 0FCA58B3
Копирование... OK
Ошибок не произошло
AccurateRip: сводка
Трек 1 нет в базе данных
Трек 2 нет в базе данных
Трек 3 нет в базе данных
Трек 4 нет в базе данных
Трек 5 нет в базе данных
Трек 6 нет в базе данных
Трек 7 нет в базе данных
Трек 8 нет в базе данных
Трек 9 нет в базе данных
Трек 10 нет в базе данных
Трек 11 нет в базе данных
Трек 12 нет в базе данных
Трек 13 нет в базе данных
Ни одного трека нет в базе AccurateRip
Конец отчёта

Штиль (2002)

01. Штиль (Совместно с UDO) (5:11)
02. Пробил Час (5:20)
03. Небо Тебя Найдёт (Версия 2002 года) (6:04)
04. Ангельская Пыль (Версия 1994 года) (6:01)
05. Свобода (5:14)
06. Герой Асфальта (Версия 1999 года) (5:15)
07. Потерянный Рай (5:35)
08. You'd Better Believe Me (4:01)
09. Беспечный Ангел (3:59)
10. Машина Смерти (3:55)
11. Дай Руку Мне (Bonus Track) (5:06)

Отчёт EAC

Exact Audio Copy V0.99 prebeta 3 from 28. July 2007
Отчёт EAC об извлечении, выполненном 6. февраля 2008, 0:19
Ария / Штиль (Compilation)
Дисковод: Optiarc DVD RW AD-7173A Adapter: 4 ID: 0
Режим чтения : Достоверность
Использование точного потока : Да
Отключение кэша аудио : Да
Использование указателей C2 : Нет
Коррекция смещения при чтении : 48
Способность читать области Lead-in и Lead-out : Нет
Заполнение пропущенных сэмплов тишиной : Да
Удаление блоков с тишиной в начале и конце : Нет
При вычислениях CRC использовались нулевые сэмплы : Да
Интерфейс : Встроенный Win32-интерфейс для Win NT/2000
Выходной формат : Внутренние WAV-операции
Формат сэмплов : 44.100 Гц; 16 бит; стерео
TOC извлечённого CD
Трек | Старт | Длительность | Начальный сектор | Конечный сектор
---------------------------------------------------------------------
1 | 0:00.00 | 5:11.32 | 0 | 23356
2 | 5:11.32 | 5:19.40 | 23357 | 47321
3 | 10:30.72 | 6:04.33 | 47322 | 74654
4 | 16:35.30 | 6:00.60 | 74655 | 101714
5 | 22:36.15 | 5:13.39 | 101715 | 125228
6 | 27:49.54 | 5:14.73 | 125229 | 148851
7 | 33:04.52 | 5:35.33 | 148852 | 174009
8 | 38:40.10 | 4:00.61 | 174010 | 192070
9 | 42:40.71 | 3:58.49 | 192071 | 209969
10 | 46:39.45 | 3:54.42 | 209970 | 227561
11 | 50:34.12 | 5:05.57 | 227562 | 250493
Характеристики диапазона извлечения и сообщения об ошибках
Выбранный диапазон
Имя файла E:\Музыка (Lossless)\Ария\2002 - Штиль (Compilation)\Ария - Штиль (Compilation).wav
Пиковый уровень 98.8 %
Качество диапазона 99.9 %
CRC копии 193C4147
Копирование... OK
Ошибок не произошло
AccurateRip: сводка
Трек 1 точность не определена (достоверность 1) [56CF6A01], AccurateRip вернул [1EF77517]
Трек 2 точность не определена (достоверность 1) [763CCEF0], AccurateRip вернул [32A46DE3]
Трек 3 точность не определена (достоверность 1) [81DF495D], AccurateRip вернул [DBA40756]
Трек 4 точность не определена (достоверность 1) [84FCD8D9], AccurateRip вернул [CCA0E84B]
Трек 5 точность не определена (достоверность 1) [8EDB995C], AccurateRip вернул [C64B7B15]
Трек 6 точность не определена (достоверность 1) [C9EC6CBB], AccurateRip вернул [8AAC4EF4]
Трек 7 точность не определена (достоверность 1) [7717AF09], AccurateRip вернул [187982B5]
Трек 8 точность не определена (достоверность 1) [0B33FB0E], AccurateRip вернул [635D8A79]
Трек 9 точность не определена (достоверность 1) [F4F5B5EC], AccurateRip вернул [C971336E]
Трек 10 точность не определена (достоверность 1) [F8619395], AccurateRip вернул [F5BC9352]
Трек 11 точность не определена (достоверность 1) [8C663496], AccurateRip вернул [48DCEEEB]
Ни один трек не прошёл проверки на точность
В вашей базе может быть иной вариант штамповки диска
Конец отчёта

Легенды Русского Рока - Выпуск 2 (2003)

01. На Службе Силы Зла (7:12)
02. Раскачаем Этот Мир (5:57)
03. Не Хочешь - Не Верь Мне! (4:02)
04. Беги За Солнцем (6:11)
05. Беспечный Ангел (3:58)
06. Ночь Короче Дня (7:16)
07. Штиль (5:11)
08. 1100 (4:54)
09. Ангельская Пыль (6:01)
10. Отшельник (5:37)
11. Баллада О древнерусском Воине (8:32)
12. Потерянный Рай (5:35)
13. Колизей (6:30)

Отчёт EAC

Exact Audio Copy V0.99 prebeta 4 from 23. January 2008
Отчёт EAC об извлечении, выполненном 24. апреля 2008, 22:41
Ария / Легенды Русского Рока - Выпуск 2 (Compilation)
Дисковод: Optiarc DVD RW AD-7173A Adapter: 4 ID: 0
Режим чтения : Достоверность
Использование точного потока : Да
Отключение кэша аудио : Да
Использование указателей C2 : Нет
Коррекция смещения при чтении : 48
Способность читать области Lead-in и Lead-out : Нет
Заполнение пропущенных сэмплов тишиной : Да
Удаление блоков с тишиной в начале и конце : Нет
При вычислениях CRC использовались нулевые сэмплы : Да
Интерфейс : Встроенный Win32-интерфейс для Win NT/2000
Выходной формат : Внутренние WAV-операции
Формат сэмплов : 44.100 Гц; 16 бит; стерео
TOC извлечённого CD
Трек | Старт | Длительность | Начальный сектор | Конечный сектор
---------------------------------------------------------------------
1 | 0:00.00 | 7:12.08 | 0 | 32407
2 | 7:12.08 | 5:57.06 | 32408 | 59188
3 | 13:09.14 | 4:02.03 | 59189 | 77341
4 | 17:11.17 | 6:11.16 | 77342 | 105182
5 | 23:22.33 | 3:58.17 | 105183 | 123049
6 | 27:20.50 | 7:15.46 | 123050 | 155720
7 | 34:36.21 | 5:11.02 | 155721 | 179047
8 | 39:47.23 | 4:53.70 | 179048 | 201092
9 | 44:41.18 | 6:00.58 | 201093 | 228150
10 | 50:42.01 | 5:36.57 | 228151 | 253407
11 | 56:18.58 | 8:31.48 | 253408 | 291780
12 | 64:50.31 | 5:35.33 | 291781 | 316938
13 | 70:25.64 | 6:29.45 | 316939 | 346158
Характеристики диапазона извлечения и сообщения об ошибках
Выбранный диапазон
Имя файла E:\Музыка (Lossless)\Ария\2003 - Легенды Русского рока - Выпуск 2 (Compilation)\Ария - Легенды Русского Рока - Выпуск 2 (Compilation).wav
Пиковый уровень 92.2 %
Качество диапазона 99.9 %
CRC копии 5DCD86DE
Копирование... OK
Ошибок не произошло
AccurateRip: сводка
Трек 1 нет в базе данных
Трек 2 нет в базе данных
Трек 3 нет в базе данных
Трек 4 нет в базе данных
Трек 5 нет в базе данных
Трек 6 нет в базе данных
Трек 7 нет в базе данных
Трек 8 нет в базе данных
Трек 9 нет в базе данных
Трек 10 нет в базе данных
Трек 11 нет в базе данных
Трек 12 нет в базе данных
Трек 13 нет в базе данных
Ни одного трека нет в базе AccurateRip
Конец отчёта

Миссия (2004)

01. Крещение Огнём (6:08)
02. Бал У Князя Тьмы (6:00)
03. Палач (8:40)
04. Там Высоко... (5:39)
05. Антихрист (4:58)
06. Ангельская Пыль (5:55)
07. Колизей (6:29)
08. Небо Тебя Найдёт (5:13)
09. Штиль (5:32)
10. Улица Роз (5:58)

Отчёт EAC

Exact Audio Copy V0.99 prebeta 4 from 23. January 2008
Отчёт EAC об извлечении, выполненном 24. апреля 2008, 23:04
Ария / Миссия (Compilation)
Дисковод: Optiarc DVD RW AD-7173A Adapter: 4 ID: 0
Режим чтения : Достоверность
Использование точного потока : Да
Отключение кэша аудио : Да
Использование указателей C2 : Нет
Коррекция смещения при чтении : 48
Способность читать области Lead-in и Lead-out : Нет
Заполнение пропущенных сэмплов тишиной : Да
Удаление блоков с тишиной в начале и конце : Нет
При вычислениях CRC использовались нулевые сэмплы : Да
Интерфейс : Встроенный Win32-интерфейс для Win NT/2000
Выходной формат : Внутренние WAV-операции
Формат сэмплов : 44.100 Гц; 16 бит; стерео
TOC извлечённого CD
Трек | Старт | Длительность | Начальный сектор | Конечный сектор
---------------------------------------------------------------------
1 | 0:00.00 | 6:07.42 | 0 | 27566
2 | 6:07.42 | 5:59.53 | 27567 | 54544
3 | 12:07.20 | 8:39.69 | 54545 | 93538
4 | 20:47.14 | 5:38.55 | 93539 | 118943
5 | 26:25.69 | 4:58.07 | 118944 | 141300
6 | 31:24.01 | 5:54.55 | 141301 | 167905
7 | 37:18.56 | 6:29.26 | 167906 | 197106
8 | 43:48.07 | 5:13.18 | 197107 | 220599
9 | 49:01.25 | 5:32.12 | 220600 | 245511
10 | 54:33.37 | 5:57.50 | 245512 | 272336
Характеристики диапазона извлечения и сообщения об ошибках
Выбранный диапазон
Имя файла E:\Музыка (Lossless)\Ария\2004 - Миссия (Compilation)\Ария - Миссия (Compilation).wav
Пиковый уровень 98.8 %
Качество диапазона 99.9 %
CRC копии 54197B93
Копирование... OK
Ошибок не произошло
AccurateRip: сводка
Трек 1 нет в базе данных
Трек 2 нет в базе данных
Трек 3 нет в базе данных
Трек 4 нет в базе данных
Трек 5 нет в базе данных
Трек 6 нет в базе данных
Трек 7 нет в базе данных
Трек 8 нет в базе данных
Трек 9 нет в базе данных
Трек 10 нет в базе данных
Ни одного трека нет в базе AccurateRip
Конец отчёта

Беспечный Ангел (2004)

01. Там Высоко... (4:32)
02. Без Тебя (4:22)
03. Штиль (5:34)
04. Мечты (4:31)
05. Замкнутый Круг (6:49)
06. Ангельская Пыль (5:57)
07. Возьми Моё Сердце (4:12)
08. Пытка Тишиной (5:29)
09. Вампир (5:29)
10. Осколк Льда (5:25)
11. Раскачаем Этот Мир (5:44)
12. Всё, Что Было (5:06)
13. Беги За Солнцем (5:54)
14. Беспечный Ангел (4:17)

Отчёт EAC

Exact Audio Copy V0.99 prebeta 4 from 23. January 2008
Отчёт EAC об извлечении, выполненном 25. апреля 2008, 0:06
Ария / Беспечный Ангел (Compilation)
Дисковод: Optiarc DVD RW AD-7173A Adapter: 4 ID: 0
Режим чтения : Достоверность
Использование точного потока : Да
Отключение кэша аудио : Да
Использование указателей C2 : Нет
Коррекция смещения при чтении : 48
Способность читать области Lead-in и Lead-out : Нет
Заполнение пропущенных сэмплов тишиной : Да
Удаление блоков с тишиной в начале и конце : Нет
При вычислениях CRC использовались нулевые сэмплы : Да
Интерфейс : Встроенный Win32-интерфейс для Win NT/2000
Выходной формат : Внутренние WAV-операции
Формат сэмплов : 44.100 Гц; 16 бит; стерео
TOC извлечённого CD
Трек | Старт | Длительность | Начальный сектор | Конечный сектор
---------------------------------------------------------------------
1 | 0:00.00 | 4:31.68 | 0 | 20392
2 | 4:31.68 | 4:21.67 | 20393 | 40034
3 | 8:53.60 | 5:33.39 | 40035 | 65048
4 | 14:27.24 | 4:30.70 | 65049 | 85368
5 | 18:58.19 | 6:48.38 | 85369 | 116006
6 | 25:46.57 | 5:57.24 | 116007 | 142805
7 | 31:44.06 | 4:11.71 | 142806 | 161701
8 | 35:56.02 | 5:28.56 | 161702 | 186357
9 | 41:24.58 | 5:28.73 | 186358 | 211030
10 | 46:53.56 | 5:25.30 | 211031 | 235435
11 | 52:19.11 | 5:43.45 | 235436 | 261205
12 | 58:02.56 | 5:05.74 | 261206 | 284154
13 | 63:08.55 | 5:53.61 | 284155 | 310690
14 | 69:02.41 | 4:16.46 | 310691 | 329936
Характеристики диапазона извлечения и сообщения об ошибках
Выбранный диапазон
Имя файла E:\Музыка (Lossless)\Ария\2004 - Беспечный Ангел (Compilation)\Ария - Беспечный Ангел (Compilation).wav
Пиковый уровень 100.0 %
Качество диапазона 99.9 %
CRC копии 8CC2E7DB
Копирование... OK
Ошибок не произошло
AccurateRip: сводка
Трек 1 точное извлечение (доверие 1) [7CE3B300]
Трек 2 точное извлечение (доверие 1) [174A9882]
Трек 3 точное извлечение (доверие 1) [CDCF0B19]
Трек 4 точное извлечение (доверие 1) [FF69E677]
Трек 5 точное извлечение (доверие 1) [69B73A02]
Трек 6 точное извлечение (доверие 1) [B0652948]
Трек 7 точное извлечение (доверие 1) [4380F44F]
Трек 8 точное извлечение (доверие 1) [BF3748A9]
Трек 9 точное извлечение (доверие 1) [394A6AA7]
Трек 10 точное извлечение (доверие 1) [01092A7C]
Трек 11 точное извлечение (доверие 1) [CDEC11FC]
Трек 12 точное извлечение (доверие 1) [A242FC59]
Трек 13 точное извлечение (доверие 1) [E052EB35]
Трек 14 точное извлечение (доверие 1) [1B72514F]
Все треки извлечены точно
Конец отчёта

Grand Collection - Часть 1 (2005)

01. Колизей (6:31)
02. Грязь (4:42)
03. Герой Асфальта (5:15)
04. Воля И Разум (4:35)
05. Кровь За Кровь (7:43)
06. Потерянный Рай (5:36)
07. Тореро (5:30)
08. Следуй За Мной! (4:42)
09. Дьявольский Зной (4:52)
10. Уходи, И Не Возвращайся! (3:50)
11. Беспечный Ангел (3:58)
12. Искушение (3:59)
13. Ночь Короче Дня (7:15)
14. Пробил Час (5:19)
15. Там Высоко... (5:19)

Отчёт EAC

Exact Audio Copy V0.99 prebeta 5 from 4. May 2009
Отчёт EAC об извлечении, выполненном 15. ноября 2009, 16:11
Ария / Grand Collection - Часть 1 (Compilation)
Дисковод: Optiarc DVD RW AD-7173A Adapter: 0 ID: 0
Режим чтения : Достоверность
Использование точного потока : Да
Отключение кэша аудио : Да
Использование указателей C2 : Нет
Коррекция смещения при чтении : 48
Способность читать области Lead-in и Lead-out : Нет
Заполнение пропущенных сэмплов тишиной : Да
Удаление блоков с тишиной в начале и конце : Нет
При вычислениях CRC использовались нулевые сэмплы : Да
Интерфейс : Встроенный Win32-интерфейс для Win NT/2000
Выходной формат : Внутренние WAV-операции
Формат сэмплов : 44.100 Гц; 16 бит; стерео
TOC извлечённого CD
Трек | Старт | Длительность | Начальный сектор | Конечный сектор
---------------------------------------------------------------------
1 | 0:00.00 | 6:31.16 | 0 | 29340
2 | 6:31.16 | 4:42.53 | 29341 | 50543
3 | 11:13.69 | 5:15.44 | 50544 | 74212
4 | 16:29.38 | 4:35.05 | 74213 | 94842
5 | 21:04.43 | 7:43.56 | 94843 | 129623
6 | 28:48.24 | 5:36.70 | 129624 | 154893
7 | 34:25.19 | 5:30.33 | 154894 | 179676
8 | 39:55.52 | 4:42.35 | 179677 | 200861
9 | 44:38.12 | 4:52.39 | 200862 | 222800
10 | 49:30.51 | 3:50.16 | 222801 | 240066
11 | 53:20.67 | 3:58.30 | 240067 | 257946
12 | 57:19.22 | 3:59.51 | 257947 | 275922
13 | 61:18.73 | 7:15.38 | 275923 | 308585
14 | 68:34.36 | 5:19.20 | 308586 | 332530
15 | 73:53.56 | 5:19.23 | 332531 | 356478
Характеристики диапазона извлечения и сообщения об ошибках
Выбранный диапазон
Имя файла E:\Музыка (Lossless)\Ария\2005 - Grand Collection - Часть 1 (Compilation)\Ария - Grand Collection - Часть 1 (Compilation).wav
Пиковый уровень 96.6 %
Качество диапазона 99.9 %
CRC копии FAC7095C
Копирование... OK
Ошибок не произошло
AccurateRip: сводка
Трек 1 нет в базе данных
Трек 2 нет в базе данных
Трек 3 нет в базе данных
Трек 4 нет в базе данных
Трек 5 нет в базе данных
Трек 6 нет в базе данных
Трек 7 нет в базе данных
Трек 8 нет в базе данных
Трек 9 нет в базе данных
Трек 10 нет в базе данных
Трек 11 нет в базе данных
Трек 12 нет в базе данных
Трек 13 нет в базе данных
Трек 14 нет в базе данных
Трек 15 нет в базе данных
Ни одного трека нет в базе AccurateRip
Конец отчёта

Grand Collection - Часть 2 (2005)

01. Штиль (5:10)
02. Встань, Страх Преодолей (4:16)
03. Антихрист (5:04)
04. Ангельская Пыль (5:59)
05. Улица Роз (5:58)
06. Осколок Льда (8:38)
07. Мечты (5:17)
08. Крещение Огнём (5:43)
09. Не Хочешь, Не Верь Мне (4:01)
10. Отшельник (5:36)
11. Всё, Что Было (5:14)
12. Игра С Огнём (9:04)
13. Свобода (5:13)
14. Возьми Моё Сердце (4:03)

Отчёт EAC

Exact Audio Copy V0.99 prebeta 5 from 4. May 2009
Отчёт EAC об извлечении, выполненном 15. ноября 2009, 16:29
Ария / Grand Collection - Часть 2 (Compilation)
Дисковод: Optiarc DVD RW AD-7173A Adapter: 0 ID: 0
Режим чтения : Достоверность
Использование точного потока : Да
Отключение кэша аудио : Да
Использование указателей C2 : Нет
Коррекция смещения при чтении : 48
Способность читать области Lead-in и Lead-out : Нет
Заполнение пропущенных сэмплов тишиной : Да
Удаление блоков с тишиной в начале и конце : Нет
При вычислениях CRC использовались нулевые сэмплы : Да
Интерфейс : Встроенный Win32-интерфейс для Win NT/2000
Выходной формат : Внутренние WAV-операции
Формат сэмплов : 44.100 Гц; 16 бит; стерео
TOC извлечённого CD
Трек | Старт | Длительность | Начальный сектор | Конечный сектор
---------------------------------------------------------------------
1 | 0:00.00 | 5:10.24 | 0 | 23273
2 | 5:10.24 | 4:16.26 | 23274 | 42499
3 | 9:26.50 | 5:04.66 | 42500 | 65365
4 | 14:31.41 | 5:59.55 | 65366 | 92345
5 | 20:31.21 | 5:58.08 | 92346 | 119203
6 | 26:29.29 | 8:38.20 | 119204 | 158073
7 | 35:07.49 | 5:17.74 | 158074 | 181922
8 | 40:25.48 | 5:43.51 | 181923 | 207698
9 | 46:09.24 | 4:01.69 | 207699 | 225842
10 | 50:11.18 | 5:36.39 | 225843 | 251081
11 | 55:47.57 | 5:14.34 | 251082 | 274665
12 | 61:02.16 | 9:04.57 | 274666 | 315522
13 | 70:06.73 | 5:13.20 | 315523 | 339017
14 | 75:20.18 | 4:03.27 | 339018 | 357269
Характеристики диапазона извлечения и сообщения об ошибках
Выбранный диапазон
Имя файла E:\Музыка (Lossless)\Ария\2005 - Grand Collection - Часть 2 (Compilation)\Ария - Grand Collection - Часть 2 (Compilation).wav
Пиковый уровень 98.5 %
Качество диапазона 100.0 %
CRC копии EC517400
Копирование... OK
Ошибок не произошло
AccurateRip: сводка
Трек 1 нет в базе данных
Трек 2 нет в базе данных
Трек 3 нет в базе данных
Трек 4 нет в базе данных
Трек 5 нет в базе данных
Трек 6 нет в базе данных
Трек 7 нет в базе данных
Трек 8 нет в базе данных
Трек 9 нет в базе данных
Трек 10 нет в базе данных
Трек 11 нет в базе данных
Трек 12 нет в базе данных
Трек 13 нет в базе данных
Трек 14 нет в базе данных
Ни одного трека нет в базе AccurateRip
Конец отчёта

Новая Коллекция (2010)

Диск 1
01. Воля И Разум (4:33)
02. Встань, Страх Преодолей (4:14)
03. Тореро (5:28)
04. Улица Роз (5:56)
05. Мёртвая Зона (6:41)
06. Герой Асфальта (5:12)
07. На Службе Силы Зла (5:58)
08. 1100 (4:53)
09. Раскачаем Этот Мир (5:57)
10. Мечты (5:17)
11. Бой Продолжается (6:05)
12. Дай Руку Мне (5:07)
13. Что Вы Сделали С Вашей Мечтой? (5:18)
14. Искушение (3:58)
15. Без Тебя (4:20)
Диск 2
01. Прощай, Норфолк! (5:16)
02. Не Хочешь, Не Верь Мне (4:00)
03. Всё, Что Было (5:12)
04. Зверь (3:43)
05. Уходи, И Не Возвращайся (3:49)
06. Возьми Моё Сердце (4:05)
07. Король Дороги (4:15)
08. Ангельская Пыль (5:59)
09. Паранойя (4:57)
10. Отшельник (5:36)
11. Закат (4:49)
12. Грязь (4:41)
13. Обман (5:16)
14. Потерянный Рай (с симфоническим оркестром) (5:34)
15. Замкнутый Круг (6:48)
16. Штиль (вместе с UDO) (5:08)-

Отчёт EAC

Диск 1

Exact Audio Copy V1.0 beta 3 from 29. August 2011
Отчёт EAC об извлечении, выполненном 9. января 2012, 20:30
Ария / Новая Коллекция (Диск 1)
Дисковод: Optiarc DVD RW AD-7173A Adapter: 0 ID: 0
Режим чтения : Достоверность
Использование точного потока : Да
Отключение кэша аудио : Да
Использование указателей C2 : Нет
Коррекция смещения при чтении : 48
Способность читать области Lead-in и Lead-out : Нет
Заполнение пропущенных сэмплов тишиной : Да
Удаление блоков с тишиной в начале и конце : Нет
При вычислениях CRC использовались нулевые сэмплы : Да
Интерфейс : Встроенный Win32-интерфейс для Win NT/2000
Выходной формат : Пользовательский кодировщик
Выбранный битрейт : 768 kBit/s
Качество : Высокий
Добавление ID3-тега : Нет
Утилита сжатия : D:\Program Files (x86)\Exact Audio Copy\FLAC\FLAC.EXE
Дополнительные параметры : -8 -V -T "ARTIST=%artist%" -T "TITLE=%title%" -T "ALBUM=%albumtitle%" -T "DATE=%year%" -T "TRACKNUMBER=%tracknr%" -T "GENRE=%genre%" -T "COMMENT=%comment%" -T "BAND=%albuminterpret%" -T "ALBUMARTIST=%albuminterpret%" -T "COMPOSER=%composer%" %haslyrics%--tag-from-file=LYRICS="%lyricsfile%"%haslyrics% -T "DISCNUMBER=%cdnumber%" -T "TOTALDISCS=%totalcds%" -T "TOTALTRACKS=%numtracks%" %hascover%--picture="%coverfile%"%hascover% %source% -o %dest%
TOC извлечённого CD
Трек | Старт | Длительность | Начальный сектор | Конечный сектор
---------------------------------------------------------------------
1 | 0:00.00 | 4:33.00 | 0 | 20474
2 | 4:33.00 | 4:14.74 | 20475 | 39598
3 | 8:47.74 | 5:28.55 | 39599 | 64253
4 | 14:16.54 | 5:56.37 | 64254 | 90990
5 | 20:13.16 | 6:41.28 | 90991 | 121093
6 | 26:54.44 | 5:12.56 | 121094 | 144549
7 | 32:07.25 | 5:58.35 | 144550 | 171434
8 | 38:05.60 | 4:53.57 | 171435 | 193466
9 | 42:59.42 | 5:57.26 | 193467 | 220267
10 | 48:56.68 | 5:17.47 | 220268 | 244089
11 | 54:14.40 | 6:05.53 | 244090 | 271517
12 | 60:20.18 | 5:07.38 | 271518 | 294580
13 | 65:27.56 | 5:18.61 | 294581 | 318491
14 | 70:46.42 | 3:58.32 | 318492 | 336373
15 | 74:44.74 | 4:20.60 | 336374 | 355933
Характеристики диапазона извлечения и сообщения об ошибках
Выбранный диапазон
Имя файла D:\Музыка (Lossless)\Ария\3\Ария - Новая Коллекция (Диск 1).wav
Пиковый уровень 98.8 %
Скорость извлечения 5.9 X
Качество диапазона 100.0 %
CRC теста BDC8EDEE
CRC копии BDC8EDEE
Копирование... OK
Ошибок не произошло
AccurateRip: сводка
Трек 1 отсутствует в базе данных
Трек 2 отсутствует в базе данных
Трек 3 отсутствует в базе данных
Трек 4 отсутствует в базе данных
Трек 5 отсутствует в базе данных
Трек 6 отсутствует в базе данных
Трек 7 отсутствует в базе данных
Трек 8 отсутствует в базе данных
Трек 9 отсутствует в базе данных
Трек 10 отсутствует в базе данных
Трек 11 отсутствует в базе данных
Трек 12 отсутствует в базе данных
Трек 13 отсутствует в базе данных
Трек 14 отсутствует в базе данных
Трек 15 отсутствует в базе данных
Ни одного трека нет в базе AccurateRip
Конец отчёта
==== Контрольная сумма отчёта 9CD64A3768CAF52012E224D5043FAE6E9C0140C9D73812FC739A8CC444371E4B ====

Диск 2

Exact Audio Copy V1.0 beta 3 from 29. August 2011
Отчёт EAC об извлечении, выполненном 9. января 2012, 20:54
Ария / Новая Коллекция (Диск 2)
Дисковод: Optiarc DVD RW AD-7173A Adapter: 0 ID: 0
Режим чтения : Достоверность
Использование точного потока : Да
Отключение кэша аудио : Да
Использование указателей C2 : Нет
Коррекция смещения при чтении : 48
Способность читать области Lead-in и Lead-out : Нет
Заполнение пропущенных сэмплов тишиной : Да
Удаление блоков с тишиной в начале и конце : Нет
При вычислениях CRC использовались нулевые сэмплы : Да
Интерфейс : Встроенный Win32-интерфейс для Win NT/2000
Выходной формат : Пользовательский кодировщик
Выбранный битрейт : 768 kBit/s
Качество : Высокий
Добавление ID3-тега : Нет
Утилита сжатия : D:\Program Files (x86)\Exact Audio Copy\FLAC\FLAC.EXE
Дополнительные параметры : -8 -V -T "ARTIST=%artist%" -T "TITLE=%title%" -T "ALBUM=%albumtitle%" -T "DATE=%year%" -T "TRACKNUMBER=%tracknr%" -T "GENRE=%genre%" -T "COMMENT=%comment%" -T "BAND=%albuminterpret%" -T "ALBUMARTIST=%albuminterpret%" -T "COMPOSER=%composer%" %haslyrics%--tag-from-file=LYRICS="%lyricsfile%"%haslyrics% -T "DISCNUMBER=%cdnumber%" -T "TOTALDISCS=%totalcds%" -T "TOTALTRACKS=%numtracks%" %hascover%--picture="%coverfile%"%hascover% %source% -o %dest%
TOC извлечённого CD
Трек | Старт | Длительность | Начальный сектор | Конечный сектор
---------------------------------------------------------------------
1 | 0:00.00 | 5:16.73 | 0 | 23772
2 | 5:16.73 | 4:00.20 | 23773 | 41792
3 | 9:17.18 | 5:12.69 | 41793 | 65261
4 | 14:30.12 | 3:43.60 | 65262 | 82046
5 | 18:13.72 | 3:49.56 | 82047 | 99277
6 | 22:03.53 | 4:05.46 | 99278 | 117698
7 | 26:09.24 | 4:15.64 | 117699 | 136887
8 | 30:25.13 | 5:59.39 | 136888 | 163851
9 | 36:24.52 | 4:57.68 | 163852 | 186194
10 | 41:22.45 | 5:36.46 | 186195 | 211440
11 | 46:59.16 | 4:49.43 | 211441 | 233158
12 | 51:48.59 | 4:41.54 | 233159 | 254287
13 | 56:30.38 | 5:16.54 | 254288 | 278041
14 | 61:47.17 | 5:34.35 | 278042 | 303126
15 | 67:21.52 | 6:48.18 | 303127 | 333744
16 | 74:09.70 | 5:08.33 | 333745 | 356877
Характеристики диапазона извлечения и сообщения об ошибках
Выбранный диапазон
Имя файла D:\Музыка (Lossless)\Ария\3\Ария - Новая Коллекция (Диск 2).wav
Пиковый уровень 98.8 %
Скорость извлечения 7.8 X
Качество диапазона 99.9 %
CRC теста 63B84B4A
CRC копии 63B84B4A
Копирование... OK
Ошибок не произошло
AccurateRip: сводка
Трек 1 отсутствует в базе данных
Трек 2 отсутствует в базе данных
Трек 3 отсутствует в базе данных
Трек 4 отсутствует в базе данных
Трек 5 отсутствует в базе данных
Трек 6 отсутствует в базе данных
Трек 7 отсутствует в базе данных
Трек 8 отсутствует в базе данных
Трек 9 отсутствует в базе данных
Трек 10 отсутствует в базе данных
Трек 11 отсутствует в базе данных
Трек 12 отсутствует в базе данных
Трек 13 отсутствует в базе данных
Трек 14 отсутствует в базе данных
Трек 15 отсутствует в базе данных
Трек 16 отсутствует в базе данных
Ни одного трека нет в базе AccurateRip
Конец отчёта
==== Контрольная сумма отчёта 8819AD3CC480D09775ACB7350D15657059EE25058374B37A85B66E0F3BE09422 ====

Золотые Баллады (2011)

01. Всё, Что Было (5:06)
02. Осколок Льда (5:26)
03. Возьми Моё Сердце (4:14)
04. Без Тебя (4:23)
05. Свет Былой Любви (4:19)
06. Потерянный Рай (5:54)
07. Закат (3:37)
08. Мечты (4:32)
09. Кто Ты? (4:47)
10. Пытка Тишиной (5:29)
11. Штиль (5:36)
12. Там Высоко... (4:34)
13. Ворон (5:44)

Отчёт EAC

Exact Audio Copy V1.0 beta 3 from 29. August 2011
Отчёт EAC об извлечении, выполненном 25. декабря 2011, 23:28
Ария / Золотые Баллады
Дисковод: Optiarc DVD RW AD-7173A Adapter: 0 ID: 0
Режим чтения : Достоверность
Использование точного потока : Да
Отключение кэша аудио : Да
Использование указателей C2 : Нет
Коррекция смещения при чтении : 48
Способность читать области Lead-in и Lead-out : Да
Заполнение пропущенных сэмплов тишиной : Да
Удаление блоков с тишиной в начале и конце : Нет
При вычислениях CRC использовались нулевые сэмплы : Да
Интерфейс : Встроенный Win32-интерфейс для Win NT/2000
Выходной формат : Пользовательский кодировщик
Выбранный битрейт : 768 kBit/s
Качество : Высокий
Добавление ID3-тега : Нет
Утилита сжатия : D:\Program Files (x86)\Exact Audio Copy\FLAC\FLAC.EXE
Дополнительные параметры : -8 -V -T "ARTIST=%artist%" -T "TITLE=%title%" -T "ALBUM=%albumtitle%" -T "DATE=%year%" -T "TRACKNUMBER=%tracknr%" -T "GENRE=%genre%" -T "COMMENT=%comment%" -T "BAND=%albuminterpret%" -T "ALBUMARTIST=%albuminterpret%" -T "COMPOSER=%composer%" %haslyrics%--tag-from-file=LYRICS="%lyricsfile%"%haslyrics% -T "DISCNUMBER=%cdnumber%" -T "TOTALDISCS=%totalcds%" -T "TOTALTRACKS=%numtracks%" %hascover%--picture="%coverfile%"%hascover% %source% -o %dest%
TOC извлечённого CD
Трек | Старт | Длительность | Начальный сектор | Конечный сектор
---------------------------------------------------------------------
1 | 0:00.00 | 5:06.69 | 0 | 23018
2 | 5:06.69 | 5:26.25 | 23019 | 47493
3 | 10:33.19 | 4:14.24 | 47494 | 66567
4 | 14:47.43 | 4:23.48 | 66568 | 86340
5 | 19:11.16 | 4:19.10 | 86341 | 105775
6 | 23:30.26 | 5:54.04 | 105776 | 132329
7 | 29:24.30 | 3:37.21 | 132330 | 148625
8 | 33:01.51 | 4:32.14 | 148626 | 169039
9 | 37:33.65 | 4:47.34 | 169040 | 190598
10 | 42:21.24 | 5:29.53 | 190599 | 215326
11 | 47:51.02 | 5:36.35 | 215327 | 240561
12 | 53:27.37 | 4:34.58 | 240562 | 261169
13 | 58:02.20 | 5:44.37 | 261170 | 287006
Характеристики диапазона извлечения и сообщения об ошибках
Выбранный диапазон
Имя файла D:\Музыка (Lossless)\Ария\2011 - Золотые Баллады\Ария - Золотые Баллады.wav
Пиковый уровень 97.0 %
Скорость извлечения 5.5 X
Качество диапазона 100.0 %
CRC копии 2F5FA4AB
Копирование... OK
Ошибок не произошло
AccurateRip: сводка
Трек 1 отсутствует в базе данных
Трек 2 отсутствует в базе данных
Трек 3 отсутствует в базе данных
Трек 4 отсутствует в базе данных
Трек 5 отсутствует в базе данных
Трек 6 отсутствует в базе данных
Трек 7 отсутствует в базе данных
Трек 8 отсутствует в базе данных
Трек 9 отсутствует в базе данных
Трек 10 отсутствует в базе данных
Трек 11 отсутствует в базе данных
Трек 12 отсутствует в базе данных
Трек 13 отсутствует в базе данных
Ни одного трека нет в базе AccurateRip
Конец отчёта
==== Контрольная сумма отчёта 45D5A9CEDC58E003326927A16CB8A29852A99AAA6FB3F7C4B3F80577E92C5F86 ====
Концертные альбомы

Сделано В России (1996)

Диск 1
01. Рабство Иллюзий (5:44)
02. Паранойя (5:12)
03. Раскачаем Этот Мир (6:23)
04. Король Дороги (4:13)
05. Ангельская Пыль (5:54)
06. Уходи, И Не Возвращайся! (3:57)
07. Антихрист (5:19)
08. Возьми Моё Сердце (4:23)
09. Следуй За Мной! (4:42)
10. Ночь Короче Дня (7:17)
Диск 2
01. Прощай, Норфолк! (6:17)
02. Волонтёр (4:59)
03. Дух Войны (5:02)
04. Тореро (5:46)
05. Бой Продалжается (5:56)
06. Всё, Что Было (5:03)
07. Герой Асфальта (5:06)
08. Улица Роз (6:27)
09. Дай Жару! (5:13)
10. Баллада О Древнерусском Воине (7:44)-

Отчёт EAC

Диск 1

Exact Audio Copy V0.99 prebeta 3 from 28. July 2007
Отчёт EAC об извлечении, выполненном 4. февраля 2008, 23:14
Ария / Сделано В России (Live) (CD 1)
Дисковод: Optiarc DVD RW AD-7173A Adapter: 4 ID: 0
Режим чтения : Достоверность
Использование точного потока : Да
Отключение кэша аудио : Да
Использование указателей C2 : Нет
Коррекция смещения при чтении : 48
Способность читать области Lead-in и Lead-out : Нет
Заполнение пропущенных сэмплов тишиной : Да
Удаление блоков с тишиной в начале и конце : Нет
При вычислениях CRC использовались нулевые сэмплы : Да
Интерфейс : Встроенный Win32-интерфейс для Win NT/2000
Выходной формат : Внутренние WAV-операции
Формат сэмплов : 44.100 Гц; 16 бит; стерео
TOC извлечённого CD
Трек | Старт | Длительность | Начальный сектор | Конечный сектор
---------------------------------------------------------------------
1 | 0:00.10 | 5:44.18 | 10 | 25827
2 | 5:44.28 | 5:12.23 | 25828 | 49250
3 | 10:56.51 | 6:22.45 | 49251 | 77945
4 | 17:19.21 | 4:13.22 | 77946 | 96942
5 | 21:32.43 | 5:53.58 | 96943 | 123475
6 | 27:26.26 | 3:56.59 | 123476 | 141234
7 | 31:23.10 | 5:18.43 | 141235 | 165127
8 | 36:41.53 | 4:22.59 | 165128 | 184836
9 | 41:04.37 | 4:42.26 | 184837 | 206012
10 | 45:46.63 | 7:16.73 | 206013 | 238785
Характеристики диапазона извлечения и сообщения об ошибках
Выбранный диапазон
Имя файла E:\Музыка (Lossless)\Ария\1996 - Сделано В России (Live) (CD 1)\Ария - Сделано В России (Live) (CD 1).wav
Пиковый уровень 98.8 %
Качество диапазона 99.9 %
CRC копии 3C8E1387
Копирование... OK
Ошибок не произошло
AccurateRip: сводка
Трек 1 нет в базе данных
Трек 2 нет в базе данных
Трек 3 нет в базе данных
Трек 4 нет в базе данных
Трек 5 нет в базе данных
Трек 6 нет в базе данных
Трек 7 нет в базе данных
Трек 8 нет в базе данных
Трек 9 нет в базе данных
Трек 10 нет в базе данных
Ни одного трека нет в базе AccurateRip
Конец отчёта

Диск 2

Exact Audio Copy V0.99 prebeta 3 from 28. July 2007
Отчёт EAC об извлечении, выполненном 4. февраля 2008, 23:48
Ария / Сделано В России (Live) (CD 2)
Дисковод: Optiarc DVD RW AD-7173A Adapter: 4 ID: 0
Режим чтения : Достоверность
Использование точного потока : Да
Отключение кэша аудио : Да
Использование указателей C2 : Нет
Коррекция смещения при чтении : 48
Способность читать области Lead-in и Lead-out : Нет
Заполнение пропущенных сэмплов тишиной : Да
Удаление блоков с тишиной в начале и конце : Нет
При вычислениях CRC использовались нулевые сэмплы : Да
Интерфейс : Встроенный Win32-интерфейс для Win NT/2000
Выходной формат : Внутренние WAV-операции
Формат сэмплов : 44.100 Гц; 16 бит; стерео
TOC извлечённого CD
Трек | Старт | Длительность | Начальный сектор | Конечный сектор
---------------------------------------------------------------------
1 | 0:00.10 | 6:17.17 | 10 | 28301
2 | 6:17.27 | 4:59.16 | 28302 | 50742
3 | 11:16.43 | 5:02.00 | 50743 | 73392
4 | 16:18.43 | 5:46.06 | 73393 | 99348
5 | 22:04.49 | 5:55.54 | 99349 | 126027
6 | 28:00.28 | 5:02.39 | 126028 | 148716
7 | 33:02.67 | 5:06.29 | 148717 | 171695
8 | 38:09.21 | 6:26.46 | 171696 | 200691
9 | 44:35.67 | 5:12.66 | 200692 | 224157
10 | 49:48.58 | 7:44.31 | 224158 | 258988
Характеристики диапазона извлечения и сообщения об ошибках
Выбранный диапазон
Имя файла E:\Музыка (Lossless)\Ария\1996 - Сделано В России (Live) (CD 2)\Ария - Сделано В России (Live) (CD 2).wav
Пиковый уровень 98.8 %
Качество диапазона 100.0 %
CRC копии 003E5266
Копирование... OK
Ошибок не произошло
AccurateRip: сводка
Трек 1 нет в базе данных
Трек 2 нет в базе данных
Трек 3 нет в базе данных
Трек 4 нет в базе данных
Трек 5 нет в базе данных
Трек 6 нет в базе данных
Трек 7 нет в базе данных
Трек 8 нет в базе данных
Трек 9 нет в базе данных
Трек 10 нет в базе данных
Ни одного трека нет в базе AccurateRip
Конец отчёта

В Поисках Новой Жертвы... (2003)

Диск 1
01. Интро (1:39)
02. Химера (4:23)
03. Небо Тебя Найдёт (5:08)
04. Раб Страха (4:35)
05. Горящая Стрела (4:00)
06. Вампир (5:06)
07. Отшельник (5:49)
08. Герой Асфальта (5:06)
09. Штиль (5:49)
10. Беги За Солнцем (5:55)
11. Закат (4:20)
12. Беспечный Ангел (4:24)
Диск 2
01. Ночь Короче Дня (7:12)
02. Обман (5:26)
03. Осколок Льда (6:03)
04. Тореро (6:19)
05. Ангельская Пыль (5:55)
06. Следуй За Мной! (4:40)
07. Баллада О Древнерусском Воине (7:40)
08. Встань, Страх Преодолей (4:23)
09. Улица Роз (6:48)
10. Здесь Куют Металл (4:43)
11. Воля И Разум (7:39)-

Отчёт EAC

Диск 1

Exact Audio Copy V0.99 prebeta 4 from 23. January 2008
Отчёт EAC об извлечении, выполненном 24. апреля 2008, 20:43
Ария / В Поисках Новой Жертвы... (Live) (CD 1)
Дисковод: Optiarc DVD RW AD-7173A Adapter: 4 ID: 0
Режим чтения : Достоверность
Использование точного потока : Да
Отключение кэша аудио : Да
Использование указателей C2 : Нет
Коррекция смещения при чтении : 48
Способность читать области Lead-in и Lead-out : Нет
Заполнение пропущенных сэмплов тишиной : Да
Удаление блоков с тишиной в начале и конце : Нет
При вычислениях CRC использовались нулевые сэмплы : Да
Интерфейс : Встроенный Win32-интерфейс для Win NT/2000
Выходной формат : Внутренние WAV-операции
Формат сэмплов : 44.100 Гц; 16 бит; стерео
TOC извлечённого CD
Трек | Старт | Длительность | Начальный сектор | Конечный сектор
---------------------------------------------------------------------
1 | 0:00.00 | 1:39.18 | 0 | 7442
2 | 1:39.18 | 4:22.47 | 7443 | 27139
3 | 6:01.65 | 5:08.02 | 27140 | 50241
4 | 11:09.67 | 4:34.55 | 50242 | 70846
5 | 15:44.47 | 4:00.03 | 70847 | 88849
6 | 19:44.50 | 5:06.33 | 88850 | 111832
7 | 24:51.08 | 5:48.48 | 111833 | 137980
8 | 30:39.56 | 5:06.27 | 137981 | 160957
9 | 35:46.08 | 5:48.57 | 160958 | 187114
10 | 41:34.65 | 5:54.56 | 187115 | 213720
11 | 47:29.46 | 4:19.39 | 213721 | 233184
12 | 51:49.10 | 4:24.31 | 233185 | 253015
Характеристики диапазона извлечения и сообщения об ошибках
Выбранный диапазон
Имя файла E:\Музыка (Lossless)\Ария\2003 - В Поисках Новой Жертвы... (Live) (CD 1)\Ария - В Поисках Новой Жертвы... (Live) (CD 1).wav
Пиковый уровень 100.0 %
Качество диапазона 99.9 %
CRC копии 28B4FB33
Копирование... OK
Ошибок не произошло
AccurateRip: сводка
Трек 1 точное извлечение (доверие 1) [C63AE2FF]
Трек 2 точное извлечение (доверие 1) [0DF7A54F]
Трек 3 точное извлечение (доверие 1) [DB7773E7]
Трек 4 точное извлечение (доверие 1) [7F3C37DF]
Трек 5 точное извлечение (доверие 1) [446CF591]
Трек 6 точное извлечение (доверие 1) [39DBA7CF]
Трек 7 точное извлечение (доверие 1) [0F2DCFB7]
Трек 8 точное извлечение (доверие 1) [8D0CBF1E]
Трек 9 точное извлечение (доверие 1) [F504A301]
Трек 10 точное извлечение (доверие 1) [D99BBA06]
Трек 11 точное извлечение (доверие 1) [E3A2C3CF]
Трек 12 точное извлечение (доверие 1) [49B4596F]
Все треки извлечены точно
Конец отчёта

Диск 2

Exact Audio Copy V0.99 prebeta 4 from 23. January 2008
Отчёт EAC об извлечении, выполненном 24. апреля 2008, 21:00
Ария / В Поисках Новой Жертвы... (Live) (CD 2)
Дисковод: Optiarc DVD RW AD-7173A Adapter: 4 ID: 0
Режим чтения : Достоверность
Использование точного потока : Да
Отключение кэша аудио : Да
Использование указателей C2 : Нет
Коррекция смещения при чтении : 48
Способность читать области Lead-in и Lead-out : Нет
Заполнение пропущенных сэмплов тишиной : Да
Удаление блоков с тишиной в начале и конце : Нет
При вычислениях CRC использовались нулевые сэмплы : Да
Интерфейс : Встроенный Win32-интерфейс для Win NT/2000
Выходной формат : Внутренние WAV-операции
Формат сэмплов : 44.100 Гц; 16 бит; стерео
TOC извлечённого CD
Трек | Старт | Длительность | Начальный сектор | Конечный сектор
---------------------------------------------------------------------
1 | 0:00.00 | 7:12.10 | 0 | 32409
2 | 7:12.10 | 5:25.69 | 32410 | 56853
3 | 12:38.04 | 6:02.45 | 56854 | 84048
4 | 18:40.49 | 6:18.43 | 84049 | 112441
5 | 24:59.17 | 5:55.33 | 112442 | 139099
6 | 30:54.50 | 4:40.28 | 139100 | 160127
7 | 35:35.03 | 7:40.12 | 160128 | 194639
8 | 43:15.15 | 4:22.62 | 194640 | 214351
9 | 47:38.02 | 6:48.14 | 214352 | 244965
10 | 54:26.16 | 4:43.22 | 244966 | 266212
11 | 59:09.38 | 7:38.61 | 266213 | 300623
Характеристики диапазона извлечения и сообщения об ошибках
Выбранный диапазон
Имя файла E:\Музыка (Lossless)\Ария\2003 - В Поисках Новой Жертвы... (Live) (CD 2)\Ария - В Поисках Новой Жертвы... (Live) (CD 2).wav
Пиковый уровень 100.0 %
Качество диапазона 99.9 %
CRC копии 4F1B3066
Копирование... OK
Ошибок не произошло
AccurateRip: сводка
Трек 1 точное извлечение (доверие 1) [F4E8F9FE]
Трек 2 точное извлечение (доверие 1) [244A75C7]
Трек 3 точное извлечение (доверие 1) [B3F1D012]
Трек 4 точное извлечение (доверие 1) [66B08E34]
Трек 5 точное извлечение (доверие 1) [31E9B9FC]
Трек 6 точное извлечение (доверие 1) [08F0B155]
Трек 7 точное извлечение (доверие 1) [67DA498F]
Трек 8 точное извлечение (доверие 1) [0A8CCBF9]
Трек 9 точное извлечение (доверие 1) [4A9BB0D1]
Трек 10 точное извлечение (доверие 1) [29BDE456]
Трек 11 точное извлечение (доверие 1) [FFFD865E]
Все треки извлечены точно
Конец отчёта

Живой Огонь (2004)

Диск 1
01. Интро (1:42)
02. Патриот (4:05)
03. Битва (5:17)
04. Раскачаем Этот мир (5:51)
05. Колизей (6:14)
06. Обман (5:05)
07. Крещение Огнём (5:42)
08. Бал У Князя Тьмы (5:43)
09. Антихрист (4:56)
10. Кровь За Кровь (7:33)
11. Ангельская Пыль (5:52)
Диск 2
01. Палач (8:25)
02. Бой Продолжается (6:11)
03. Там Высоко... (5:22)
04. Штиль (6:19)
05. Герой Асфальта (5:17)
06. Осколок Льда (8:36)
07. Баллада О Древнерусском Воине (8:58)
08. Небо Тебя Найдёт (5:39)
09. Улица Роз (9:12)-

Отчёт EAC

Диск 1

Exact Audio Copy V0.99 prebeta 4 from 23. January 2008
Отчёт EAC об извлечении, выполненном 27. апреля 2008, 15:30
Ария / Живой Огонь (Live) (CD 1)
Дисковод: Optiarc DVD RW AD-7173A Adapter: 4 ID: 0
Режим чтения : Достоверность
Использование точного потока : Да
Отключение кэша аудио : Да
Использование указателей C2 : Нет
Коррекция смещения при чтении : 48
Способность читать области Lead-in и Lead-out : Нет
Заполнение пропущенных сэмплов тишиной : Да
Удаление блоков с тишиной в начале и конце : Нет
При вычислениях CRC использовались нулевые сэмплы : Да
Интерфейс : Встроенный Win32-интерфейс для Win NT/2000
Выходной формат : Внутренние WAV-операции
Формат сэмплов : 44.100 Гц; 16 бит; стерео
TOC извлечённого CD
Трек | Старт | Длительность | Начальный сектор | Конечный сектор
---------------------------------------------------------------------
1 | 0:00.00 | 1:42.35 | 0 | 7684
2 | 1:42.35 | 4:05.08 | 7685 | 26067
3 | 5:47.43 | 5:16.57 | 26068 | 49824
4 | 11:04.25 | 5:50.58 | 49825 | 76132
5 | 16:55.08 | 6:14.26 | 76133 | 104208
6 | 23:09.34 | 5:05.13 | 104209 | 127096
7 | 28:14.47 | 5:41.51 | 127097 | 152722
8 | 33:56.23 | 5:42.63 | 152723 | 178435
9 | 39:39.11 | 4:56.09 | 178436 | 200644
10 | 44:35.20 | 7:32.70 | 200645 | 234614
11 | 52:08.15 | 5:52.32 | 234615 | 261046
Характеристики диапазона извлечения и сообщения об ошибках
Выбранный диапазон
Имя файла E:\Музыка (Lossless)\Ария\2004 - Живой Огонь (Live) (CD 1)\Ария - Живой Огонь (Live) (CD 1).wav
Пиковый уровень 96.6 %
Качество диапазона 99.9 %
CRC копии C5BBD9A1
Копирование... OK
Ошибок не произошло
AccurateRip: сводка
Трек 1 нет в базе данных
Трек 2 нет в базе данных
Трек 3 нет в базе данных
Трек 4 нет в базе данных
Трек 5 нет в базе данных
Трек 6 нет в базе данных
Трек 7 нет в базе данных
Трек 8 нет в базе данных
Трек 9 нет в базе данных
Трек 10 нет в базе данных
Трек 11 нет в базе данных
Ни одного трека нет в базе AccurateRip
Конец отчёта

Диск 2

Exact Audio Copy V0.99 prebeta 4 from 23. January 2008
Отчёт EAC об извлечении, выполненном 27. апреля 2008, 16:11
Ария / Живой Огонь (Live) (CD 2)
Дисковод: Optiarc DVD RW AD-7173A Adapter: 4 ID: 0
Режим чтения : Достоверность
Использование точного потока : Да
Отключение кэша аудио : Да
Использование указателей C2 : Нет
Коррекция смещения при чтении : 48
Способность читать области Lead-in и Lead-out : Нет
Заполнение пропущенных сэмплов тишиной : Да
Удаление блоков с тишиной в начале и конце : Нет
При вычислениях CRC использовались нулевые сэмплы : Да
Интерфейс : Встроенный Win32-интерфейс для Win NT/2000
Выходной формат : Внутренние WAV-операции
Формат сэмплов : 44.100 Гц; 16 бит; стерео
TOC извлечённого CD
Трек | Старт | Длительность | Начальный сектор | Конечный сектор
---------------------------------------------------------------------
1 | 0:00.00 | 8:24.58 | 0 | 37857
2 | 8:24.58 | 6:10.68 | 37858 | 65675
3 | 14:35.51 | 5:22.08 | 65676 | 89833
4 | 19:57.59 | 6:19.12 | 89834 | 118270
5 | 26:16.71 | 5:16.53 | 118271 | 142023
6 | 31:33.49 | 8:36.20 | 142024 | 180743
7 | 40:09.69 | 8:58.32 | 180744 | 221125
8 | 49:08.26 | 5:38.67 | 221126 | 246542
9 | 54:47.18 | 9:11.74 | 246543 | 287941
Характеристики диапазона извлечения и сообщения об ошибках
Выбранный диапазон
Имя файла E:\Музыка (Lossless)\Ария\2007 - Пляска Ада (Live) (CD 2)\Ария - Живой Огонь (Live) (CD 2).wav
Пиковый уровень 96.6 %
Качество диапазона 99.9 %
CRC копии 9B28EAEB
Копирование... OK
Ошибок не произошло
AccurateRip: сводка
Трек 1 нет в базе данных
Трек 2 нет в базе данных
Трек 3 нет в базе данных
Трек 4 нет в базе данных
Трек 5 нет в базе данных
Трек 6 нет в базе данных
Трек 7 нет в базе данных
Трек 8 нет в базе данных
Трек 9 нет в базе данных
Ни одного трека нет в базе AccurateRip
Конец отчёта

Пляска Ада (2007)

Диск 1
01. Интро (2:04)
02. Последний Закат (4:50)
03. Колизей (6:19)
04. Мессия (4:26)
05. Крещение Огнём (5:52)
06. Страж Империи (4:33)
07. Кровь Королей (8:29)
08. Викинг (5:26)
09. Бал У Князя Тьмы (5:59)
Диск 2
01. Чужой (6:27)
02. Свет Былой Любви (4:23)
03. Штиль (5:55)
04. Ночь Короче Дня (6:56)
05. Патриот (4:31)
06. Баллада О древнерусском Воине (8:13)
07. Улица Роз (6:10)
08. Небо Тебя Найдёт (6:56)
09. Оутро (0:40)-

Отчёт EAC

Диск 1

Exact Audio Copy V0.99 prebeta 4 from 23. January 2008
Отчёт EAC об извлечении, выполненном 27. апреля 2008, 13:36
Ария / Пляска Ада (Live) (CD 1)
Дисковод: Optiarc DVD RW AD-7173A Adapter: 4 ID: 0
Режим чтения : Достоверность
Использование точного потока : Да
Отключение кэша аудио : Да
Использование указателей C2 : Нет
Коррекция смещения при чтении : 48
Способность читать области Lead-in и Lead-out : Нет
Заполнение пропущенных сэмплов тишиной : Да
Удаление блоков с тишиной в начале и конце : Нет
При вычислениях CRC использовались нулевые сэмплы : Да
Интерфейс : Встроенный Win32-интерфейс для Win NT/2000
Выходной формат : Внутренние WAV-операции
Формат сэмплов : 44.100 Гц; 16 бит; стерео
TOC извлечённого CD
Трек | Старт | Длительность | Начальный сектор | Конечный сектор
---------------------------------------------------------------------
1 | 0:00.00 | 2:03.42 | 0 | 9266
2 | 2:03.42 | 4:49.53 | 9267 | 30994
3 | 6:53.20 | 6:18.72 | 30995 | 59416
4 | 13:12.17 | 4:25.72 | 59417 | 79363
5 | 17:38.14 | 5:51.39 | 79364 | 105727
6 | 23:29.53 | 4:32.66 | 105728 | 126193
7 | 28:02.44 | 8:29.07 | 126194 | 164375
8 | 36:31.51 | 5:26.33 | 164376 | 188858
9 | 41:58.09 | 5:59.14 | 188859 | 215797
Характеристики диапазона извлечения и сообщения об ошибках
Выбранный диапазон
Имя файла E:\Музыка (Lossless)\Ария\2007 - Пляска Ада (Live) (CD 1)\Ария - Пляска Ада (Live) (CD 1).wav
Пиковый уровень 100.0 %
Качество диапазона 99.9 %
CRC копии EAD818B3
Копирование... OK
Ошибок не произошло
AccurateRip: сводка
Трек 1 нет в базе данных
Трек 2 нет в базе данных
Трек 3 нет в базе данных
Трек 4 нет в базе данных
Трек 5 нет в базе данных
Трек 6 нет в базе данных
Трек 7 нет в базе данных
Трек 8 нет в базе данных
Трек 9 нет в базе данных
Ни одного трека нет в базе AccurateRip
Конец отчёта

Диск 2

Exact Audio Copy V0.99 prebeta 4 from 23. January 2008
Отчёт EAC об извлечении, выполненном 27. апреля 2008, 14:36
Ария / Пляска Ада (Live) (CD 2)
Дисковод: Optiarc DVD RW AD-7173A Adapter: 4 ID: 0
Режим чтения : Достоверность
Использование точного потока : Да
Отключение кэша аудио : Да
Использование указателей C2 : Нет
Коррекция смещения при чтении : 48
Способность читать области Lead-in и Lead-out : Нет
Заполнение пропущенных сэмплов тишиной : Да
Удаление блоков с тишиной в начале и конце : Нет
При вычислениях CRC использовались нулевые сэмплы : Да
Интерфейс : Встроенный Win32-интерфейс для Win NT/2000
Выходной формат : Внутренние WAV-операции
Формат сэмплов : 44.100 Гц; 16 бит; стерео
TOC извлечённого CD
Трек | Старт | Длительность | Начальный сектор | Конечный сектор
---------------------------------------------------------------------
1 | 0:00.00 | 6:27.37 | 0 | 29061
2 | 6:27.37 | 4:22.64 | 29062 | 48775
3 | 10:50.26 | 5:54.60 | 48776 | 75385
4 | 16:45.11 | 6:55.65 | 75386 | 106575
5 | 23:41.01 | 4:31.17 | 106576 | 126917
6 | 28:12.18 | 8:13.02 | 126918 | 163894
7 | 36:25.20 | 6:09.49 | 163895 | 191618
8 | 42:34.69 | 6:55.60 | 191619 | 222803
9 | 49:30.54 | 0:40.07 | 222804 | 225810
Характеристики диапазона извлечения и сообщения об ошибках
Выбранный диапазон
Имя файла E:\Музыка (Lossless)\Ария\2007 - Пляска Ада (Live) (CD 2)\Ария - Пляска Ада (Live) (CD 2).wav
Пиковый уровень 100.0 %
Качество диапазона 99.9 %
CRC копии 87F784A2
Копирование... OK
Ошибок не произошло
AccurateRip: сводка
Трек 1 нет в базе данных
Трек 2 нет в базе данных
Трек 3 нет в базе данных
Трек 4 нет в базе данных
Трек 5 нет в базе данных
Трек 6 нет в базе данных
Трек 7 нет в базе данных
Трек 8 нет в базе данных
Трек 9 нет в базе данных
Ни одного трека нет в базе AccurateRip
Конец отчёта

Герой Асфальта: 20 Лет (2008)

Диск 1
01. Интро (1:09)
02. Последний Закат (4:49)
03. Раскачаем Этот Мир (6:14)
04. Колизей (6:00)
05. Меченый Злом (5:56)
06. Крещение Огнём (5:48)
07. Антихрист (5:04)
08. Осколок Льда (5:37)
09. Кровь Королей (8:29)
Диск 2
01. На Службе Силы Зла (6:46)
02. Герой Асфальта (5:01)
03. Мёртвая Зона (6:09)
04. 1100 (4:55)
05. Улица Роз (6:13)
06. Баллада О Древнерусском Воине (8:48)
07. Игра С Огнём (8:57)
08. Штиль (8:40)-

Отчёт EAC

Диск 1

Exact Audio Copy V0.99 prebeta 4 from 23. January 2008
Отчёт EAC об извлечении, выполненном 9. ноября 2008, 14:10
Ария / Герой Асфальта: 20 Лет (Live) (CD 1)
Дисковод: Optiarc DVD RW AD-7173A Adapter: 4 ID: 0
Режим чтения : Достоверность
Использование точного потока : Да
Отключение кэша аудио : Да
Использование указателей C2 : Нет
Коррекция смещения при чтении : 48
Способность читать области Lead-in и Lead-out : Нет
Заполнение пропущенных сэмплов тишиной : Да
Удаление блоков с тишиной в начале и конце : Нет
При вычислениях CRC использовались нулевые сэмплы : Да
Интерфейс : Встроенный Win32-интерфейс для Win NT/2000
Выходной формат : Внутренние WAV-операции
Формат сэмплов : 44.100 Гц; 16 бит; стерео
TOC извлечённого CD
Трек | Старт | Длительность | Начальный сектор | Конечный сектор
---------------------------------------------------------------------
1 | 0:00.00 | 1:09.06 | 0 | 5180
2 | 1:09.06 | 4:49.05 | 5181 | 26860
3 | 5:58.11 | 6:13.53 | 26861 | 54888
4 | 12:11.64 | 6:00.04 | 54889 | 81892
5 | 18:11.68 | 5:55.70 | 81893 | 108587
6 | 24:07.63 | 5:48.29 | 108588 | 134716
7 | 29:56.17 | 5:04.09 | 134717 | 157525
8 | 35:00.26 | 5:36.63 | 157526 | 182788
9 | 40:37.14 | 8:28.65 | 182789 | 220953
Характеристики диапазона извлечения и сообщения об ошибках
Выбранный диапазон
Имя файла E:\Музыка (Lossless)\Ария\2008 - Герой Асфальта - 20 Лет (Live) (CD 1)\Ария - Герой Асфальта - 20 Лет (Live) (CD 1).wav
Пиковый уровень 100.0 %
Качество диапазона 99.9 %
CRC копии CDF0F728
Копирование... OK
Ошибок не произошло
AccurateRip: сводка
Трек 1 нет в базе данных
Трек 2 нет в базе данных
Трек 3 нет в базе данных
Трек 4 нет в базе данных
Трек 5 нет в базе данных
Трек 6 нет в базе данных
Трек 7 нет в базе данных
Трек 8 нет в базе данных
Трек 9 нет в базе данных
Ни одного трека нет в базе AccurateRip
Конец отчёта

Диск 2

Exact Audio Copy V0.99 prebeta 4 from 23. January 2008
Отчёт EAC об извлечении, выполненном 9. ноября 2008, 14:27
Ария / Герой Асфальта: 20 Лет (Live) (CD 2)
Дисковод: Optiarc DVD RW AD-7173A Adapter: 4 ID: 0
Режим чтения : Достоверность
Использование точного потока : Да
Отключение кэша аудио : Да
Использование указателей C2 : Нет
Коррекция смещения при чтении : 48
Способность читать области Lead-in и Lead-out : Нет
Заполнение пропущенных сэмплов тишиной : Да
Удаление блоков с тишиной в начале и конце : Нет
При вычислениях CRC использовались нулевые сэмплы : Да
Интерфейс : Встроенный Win32-интерфейс для Win NT/2000
Выходной формат : Внутренние WAV-операции
Формат сэмплов : 44.100 Гц; 16 бит; стерео
TOC извлечённого CD
Трек | Старт | Длительность | Начальный сектор | Конечный сектор
---------------------------------------------------------------------
1 | 0:00.00 | 6:45.40 | 0 | 30414
2 | 6:45.40 | 5:00.66 | 30415 | 52980
3 | 11:46.31 | 6:09.17 | 52981 | 80672
4 | 17:55.48 | 4:54.41 | 80673 | 102763
5 | 22:50.14 | 6:12.49 | 102764 | 130712
6 | 29:02.63 | 8:47.73 | 130713 | 170310
7 | 37:50.61 | 8:56.54 | 170311 | 210564
8 | 46:47.40 | 8:39.64 | 210565 | 249553
Характеристики диапазона извлечения и сообщения об ошибках
Выбранный диапазон
Имя файла E:\Музыка (Lossless)\Ария\2008 - Герой Асфальта - 20 Лет (Live) (CD 2)\Ария - Герой Асфальта - 20 Лет (Live) (CD 2).wav
Пиковый уровень 100.0 %
Качество диапазона 100.0 %
CRC копии 24166DDF
Копирование... OK
Ошибок не произошло
AccurateRip: сводка
Трек 1 нет в базе данных
Трек 2 нет в базе данных
Трек 3 нет в базе данных
Трек 4 нет в базе данных
Трек 5 нет в базе данных
Трек 6 нет в базе данных
Трек 7 нет в базе данных
Трек 8 нет в базе данных
Ни одного трека нет в базе AccurateRip
Конец отчёта
Саундтреки

Дальнобойщики-2 (2001)

01. Химера (5:02)
02. Встань, Страх Преодолей (3:32)
03. Волонтёр (3:06)
04. Грязь (4:45)
05. Без Тебя (4:25)
06. Это Рок (3:32)
07. Дьявольский Зной (4:56)
08. Тореро (4:37)
09. Мечты (4:33)
10. Воля И Разум (3:34)
11. Следй За мной! (4:41)
12. Небо (3:00)

Отчёт EAC

Exact Audio Copy V0.99 prebeta 4 from 23. January 2008
Отчёт EAC об извлечении, выполненном 13. октября 2008, 22:24
Ария / Дальнобойщики - 2 (Soundtrack)
Дисковод: Optiarc DVD RW AD-7173A Adapter: 4 ID: 0
Режим чтения : Достоверность
Использование точного потока : Да
Отключение кэша аудио : Да
Использование указателей C2 : Нет
Коррекция смещения при чтении : 48
Способность читать области Lead-in и Lead-out : Нет
Заполнение пропущенных сэмплов тишиной : Да
Удаление блоков с тишиной в начале и конце : Нет
При вычислениях CRC использовались нулевые сэмплы : Да
Интерфейс : Встроенный Win32-интерфейс для Win NT/2000
Выходной формат : Внутренние WAV-операции
Формат сэмплов : 44.100 Гц; 16 бит; стерео
TOC извлечённого CD
Трек | Старт | Длительность | Начальный сектор | Конечный сектор
---------------------------------------------------------------------
1 | 0:00.00 | 5:01.62 | 0 | 22636
2 | 5:01.62 | 3:31.70 | 22637 | 38531
3 | 8:33.57 | 3:06.01 | 38532 | 52482
4 | 11:39.58 | 4:44.67 | 52483 | 73849
5 | 16:24.50 | 4:24.59 | 73850 | 93708
6 | 20:49.34 | 3:31.44 | 93709 | 109577
7 | 24:21.03 | 4:56.24 | 109578 | 131801
8 | 29:17.27 | 4:36.70 | 131802 | 152571
9 | 33:54.22 | 4:33.20 | 152572 | 173066
10 | 38:27.42 | 3:34.06 | 173067 | 189122
11 | 42:01.48 | 4:40.65 | 189123 | 210187
12 | 46:42.38 | 2:59.55 | 210188 | 223667
Характеристики диапазона извлечения и сообщения об ошибках
Выбранный диапазон
Имя файла E:\Музыка (Lossless)\Ария\2001 - Дальнобойщики - 2 (Soundtrack)\Ария - Дальнобойщики - 2 (Soundtrack).wav
Пиковый уровень 99.8 %
Качество диапазона 99.9 %
CRC копии D0D6D45F
Копирование... OK
Ошибок не произошло
AccurateRip: сводка
Трек 1 нет в базе данных
Трек 2 нет в базе данных
Трек 3 нет в базе данных
Трек 4 нет в базе данных
Трек 5 нет в базе данных
Трек 6 нет в базе данных
Трек 7 нет в базе данных
Трек 8 нет в базе данных
Трек 9 нет в базе данных
Трек 10 нет в базе данных
Трек 11 нет в базе данных
Трек 12 нет в базе данных
Ни одного трека нет в базе AccurateRip
Конец отчёта
Дискография в формате Apple Lossless
[Profile]  [PM] 
Display posts:    
Reply to topic

Current time is: 26-Sep 00:27

All times are UTC + 2



You cannot post new topics in this forum
You cannot reply to topics in this forum
You cannot edit your posts in this forum
You cannot delete your posts in this forum
You cannot vote in polls in this forum
You cannot attach files in this forum
You cannot download files in this forum