Братец и сестрица / Brüderchen und Schwesterchen (Вольфганг Эйслер / Wolfgang Eissler) [2008, Германия, сказка, фэнтези, семейный, HDTVRip 720p] MVO (Игмар) + Original Ger

Reply to topic
 
Author
Message

Faust ®

Gender: Unknown

Longevity: 8 years 2 months

Posts: 13748

Reputation: 0 [+] [-]

Faust · Post 01-Feb-2017 15:20

[Quote] 

Братец и сестрица / Brüderchen und Schwesterchen

Страна: Германия
Жанр: сказка, фэнтези, семейный
Год выпуска: 2008
Продолжительность: 00:58:25
Перевод: Профессиональный (многоголосый закадровый) компания "Игмар"
Cубтитры: нет
Оригинальная аудиодорожка: немецкий
Режиссер: Вольфганг Эйслер / Wolfgang Eissler
В ролях: Одине Йоне, Ханс-Лаурин Бейерлинг, Андреа Завацки, Кристоф М.Орт, Лиза Альтенполь, Йонас Егермайр, Антуан Моно мл., Эмилия Шуле, Гельмут Краусс, Карстен Майэлки
Описание: После смерти матери, отец братца и сестрицы находит новую жену и мать для них. Но она оказывается ведьмой, которая всячески издевается над детьми. После того как дети убежали из дому ведьма заколдовывает в лесу все родники и превращает мальчика в оленя...

Сэмпл: https://yadi.sk/i/z5xAWSHJ3BLJbs
Тип релиза: HDTVRip 720p
Контейнер: MKV
Видео: AVC, 1280x720, 16:9, 3226 kbps, 25.000 fps
Аудио 1: RUS, AC3, 2.0, 48 kHz, 192 kbps
Аудио 2: GER, AC3, 2.0, 48 kHz, 192 kbps

MediaInfo

General
Unique ID : 241824029695565157938368820275622717869 (0xB5ED9D2F847324538D6E784A73FC29AD)
Complete name : Братец и Сестрица [2008] 720p.mkv
Format : Matroska
Format version : Version 4 / Version 2
File size : 1.50 GiB
Duration : 58mn 25s
Overall bit rate : 3 683 Kbps
Encoded date : UTC 2016-12-18 19:38:45
Writing application : mkvmerge v8.3.0 ('Over the Horizon') 32bit
Writing library : libebml v1.3.1 + libmatroska v1.4.2
Video
ID : 1
Format : AVC
Format/Info : Advanced Video Codec
Format profile : High@L4.1
Format settings, CABAC : Yes
Format settings, ReFrames : 5 frames
Codec ID : V_MPEG4/ISO/AVC
Duration : 58mn 25s
Bit rate : 3 226 Kbps
Width : 1 280 pixels
Height : 720 pixels
Display aspect ratio : 16:9
Frame rate mode : Constant
Frame rate : 25.000 fps
Color space : YUV
Chroma subsampling : 4:2:0
Bit depth : 8 bits
Scan type : Progressive
Bits/(Pixel*Frame) : 0.140
Stream size : 1.32 GiB (88%)
Writing library : x264 core 128 r2216 198a7ea
Encoding settings : cabac=1 / ref=5 / deblock=1:0:0 / analyse=0x3:0x113 / me=umh / subme=7 / psy=1 / psy_rd=1.00:0.00 / mixed_ref=1 / me_range=16 / chroma_me=1 / trellis=1 / 8x8dct=1 / cqm=0 / deadzone=21,11 / fast_pskip=0 / chroma_qp_offset=-2 / threads=3 / lookahead_threads=1 / sliced_threads=0 / nr=0 / decimate=1 / interlaced=0 / bluray_compat=0 / constrained_intra=0 / bframes=3 / b_pyramid=2 / b_adapt=1 / b_bias=0 / direct=1 / weightb=1 / open_gop=0 / weightp=2 / keyint=250 / keyint_min=25 / scenecut=40 / intra_refresh=0 / rc_lookahead=40 / rc=crf / mbtree=1 / crf=20.0 / qcomp=0.60 / qpmin=0 / qpmax=69 / qpstep=4 / ip_ratio=1.40 / aq=1:1.00
Language : German
Default : Yes
Forced : No
Audio #1
ID : 2
Format : AC-3
Format/Info : Audio Coding 3
Mode extension : CM (complete main)
Format settings, Endianness : Big
Codec ID : A_AC3
Duration : 58mn 25s
Bit rate mode : Constant
Bit rate : 192 Kbps
Channel(s) : 2 channels
Channel positions : Front: L R
Sampling rate : 48.0 KHz
Compression mode : Lossy
Stream size : 80.2 MiB (5%)
Title : MVO (Игмар)
Language : Russian
Default : Yes
Forced : No
Audio #2
ID : 3
Format : AC-3
Format/Info : Audio Coding 3
Mode extension : CM (complete main)
Format settings, Endianness : Big
Codec ID : A_AC3
Duration : 58mn 25s
Bit rate mode : Constant
Bit rate : 192 Kbps
Channel(s) : 2 channels
Channel positions : Front: L R
Sampling rate : 48.0 KHz
Compression mode : Lossy
Stream size : 80.2 MiB (5%)
Title : GER
Language : German
Default : No
Forced : No

Все фильмы серии 'Sechs auf einen Streich'

Сезон 1:
Столик-сам-накройся, золотой осёл и дубинка из мешка / Tischlein deck dich [2008]
Братец и Сестрица / Brüderchen und Schwesterchen [2008]
Король-лягушонок или Железный Генрих / Der Froschkönig [2008]
Король Дроздобород / König Drosselbart [2008]
Госпожа Метелица / Frau Holle [2008]
Храбрый портняжка / Das tapfere Schneiderlein [2008]
Сезон 2:
Белоснежка / Schneewittchen [2009]
Рапунцель / Rapunzel [2009]
Кот в сапогах / Der gestiefelte Kater [2009]
Спящая красавица / Dornröschen [2009]
Принцесса для гусей / Die Gänsemagd [2009]
Румпельштильцхен / Rumpelstilzchen [2009]
Бременские музыканты / Die Bremer Stadtmusikanten [2009]
Умная дочь крестьянина / Die kluge Bauerntochter [2009]
Сезон 3:
Волшебный свет / Das blaue Licht [2010]
Принцесса на горошине / Die Prinzessin auf der Erbse [2010]
Мастер-плут / Der Meisterdieb [2010]
Новое платье короля / Des Kaisers neue Kleider [2010]
Сезон 4:
Йоринда и Йорингель / Jorinde und Joringel [2011]
Золушка / Aschenputtel [2011]
Звёздные талеры / Die Sterntaler [2011]
Стоптанные туфельки / Die zertanzten Schuhe [2011]
Сезон 5:
Красная Шапочка / Rotkäppchen [2012]
Беляночка и Розочка / Schneeweißchen und Rosenrot [2012]
Гензель и Гретель / Hänsel und Gretel [2012]
Ослиная шкура / Allerleirauh [2012]
Сезон 6:
О рыбаке и его жене / Vom Fischer und seiner Frau [2013]
Девочка со спичками / Das Mädchen mit den Schwefelhölzern [2013]
Русалочка / Die kleine Meerjungfrau [2013]
Дьявол с тремя золотыми волосками / Der Teufel mit den drei goldenen Haaren [2013]
Сезон 7:
Распрекраса / Siebenschön [2014]
Вшестером целый свет обойдём / Sechse kommen durch die ganze Welt [2014]
Три пёрышка / Die drei Federn [2014]
Сказка о том, кто ходил страху учиться / Von einem, der auszog, das Fürchten zu lernen [2014]
Сезон 8:
Солёная принцесса / Die Salzprinzessin [2015]
Щелкунчик и Мышиный король / Nussknacker und Mausekönig [2015]
Принцесса Малейн / Prinzessin Maleen [2015]
Принц в медвежьей шкуре / Der Prinz im Bärenfell [2015]
Сезон 9:
Принц Химельблау и фея Люпин / Prinz Himmelblau und Fee Lupine [2016]
Поющее и звенящее деревце / Das singende, klingende Bäumchen [2016]
Сказка о Шлараффенландии / Das Märchen vom Schlaraffenland [2016]
Счастливый Ганс / Hans im Glück [2016]
[Profile]  [PM] 
Display posts:    
Reply to topic

Current time is: 15-Dec 12:55

All times are UTC + 2



You cannot post new topics in this forum
You cannot reply to topics in this forum
You cannot edit your posts in this forum
You cannot delete your posts in this forum
You cannot vote in polls in this forum
You cannot attach files in this forum
You cannot download files in this forum