Прибытие / Arrival (Дени Вильнёв / Denis Villeneuve) [2016, США, фантастика, триллер, драма, WEB-DLRip-AVC] MVO + Original + Sub (rus, eng)

Reply to topic
 
Author
Message

Satyr ®

Gender: Unknown

Longevity: 10 years

Posts: 14656

Reputation: 54 [+] [-]

Satyr · Post 01-Feb-2017 15:20

[Quote] 

Прибытие / Arrival«Почему они здесь?»- Страна: США
Жанр: фантастика, триллер, драма
Год выпуска: 2016
Продолжительность: 01:56:35
Перевод: Любительский (многоголосый, закадровый) (Paradox & OMSKBIRD)
Оригинальная аудиодорожка: английский
Субтитры: русские (полные), английские (полные)
Навигация по главам: есть
Режиссер: Дени Вильнёв / Denis Villeneuve
В ролях: Эми Адамс (Louise Banks), Джереми Реннер (Ian Donnelly), Майкл Стулбарг (Agent Halpern), Форест Уитакер (Colonel Weber), Сангита Патель (Newscaster 1), Ци Ма (General Shang), Эбигейл Пнёвски (Hannah (8 yrs. old)), Марк О’Брайэн (Captain Marks), Рут Чианг (Chinese Scientist), Джейдин Мэлоун (Hannah (6 yr old)), Анана Ридвальд (Danish Scientist), Натали Тибо (Gala Guest)
Описание: Неожиданное появление неопознанных летающих объектов в разных точках планеты повергает мир в трепет. Намерения пришельцев не ясны - вооруженные силы всего мира приведены в полную боевую готовность, а лучшие умы человечества пытаются понять, как разговаривать с непрошенными гостями. Правительство обращается за помощью к лингвисту Луизе Бэнкс и физику Яну Доннели, чтобы предотвратить глобальную катастрофу и найти общий язык с пришельцами. Отныне судьба человечества находится в их руках.- -Качество: WEB-DLRip-AVC (исходник - Arrival.2016.1080p.WEB-DL.DD5.1.H264-FGT)
Формат видео: MKV
Видео: x264, 1150x480 (2.40:1) 23,976 fps, ~1189 kbps, 0.090 bit/pixel
Аудио 1: 48 kHz, AC3 Dolby Digital, 2.0 (Front: L R) ch, ~192 kbps, [русский]
Аудио 2: 48 kHz, AC3 Dolby Digital, 5.1 (Front: L C R, Side: L R, LFE) ch, ~384 kbps, [английский]
Формат субтитров: softsub (SRT)-

MediaInfo | x264 log

Format : Matroska
Format version : Version 4 / Version 2
File size : 1.47 GiB
Duration : 1h 56 min
Overall bit rate : 1 802 kb/s
Movie name : Прибытие / Arrival (2016) :: AFM ::
Encoded date : UTC 2017-01-31 20:28:48
Writing application : mkvmerge v8.3.0 ('Over the Horizon') 32bit
Writing library : libebml v1.3.1 + libmatroska v1.4.2
Video
ID : 1
Format : AVC
Format/Info : Advanced Video Codec
Format profile : High@L4.1
Format settings, CABAC : Yes
Format settings, ReFrames : 12 frames
Codec ID : V_MPEG4/ISO/AVC
Duration : 1h 56 min
Bit rate : 1 190 kb/s
Width : 1 150 pixels
Height : 480 pixels
Display aspect ratio : 2.40:1
Frame rate mode : Constant
Frame rate : 23.976 (24000/1001) FPS
Color space : YUV
Chroma subsampling : 4:2:0
Bit depth : 8 bits
Scan type : Progressive
Bits/(Pixel*Frame) : 0.090
Stream size : 992 MiB (66%)
Title : WEB-DLRip by AFM
Writing library : x264 core 148 r2762+56 6284cf3 t_mod_Custom [8-bit@all X86_64]
Encoding settings : cabac=1 / ref=12 / deblock=1:-2:-1 / analyse=0x3:0x113 / me=umh / subme=10 / psy=1 / fade_compensate=0.00 / psy_rd=1.00:0.00 / mixed_ref=1 / me_range=32 / chroma_me=1 / trellis=2 / 8x8dct=1 / cqm=0 / deadzone=21,11 / fast_pskip=0 / chroma_qp_offset=-2 / threads=6 / lookahead_threads=1 / sliced_threads=0 / nr=0 / decimate=1 / interlaced=0 / bluray_compat=0 / constrained_intra=0 / fgo=0 / bframes=9 / b_pyramid=2 / b_adapt=2 / b_bias=0 / direct=3 / weightb=1 / open_gop=0 / weightp=2 / keyint=240 / keyint_min=23 / scenecut=40 / intra_refresh=0 / rc_lookahead=60 / rc=crf / mbtree=0 / crf=19.0000 / qcomp=0.65 / qpmin=0:0:0 / qpmax=69:69:69 / qpstep=4 / vbv_maxrate=50000 / vbv_bufsize=62500 / crf_max=0.0 / nal_hrd=none / filler=0 / ip_ratio=1.35 / pb_ratio=1.30 / aq=3:0.90 / aq-sensitivity=10.00 / aq-factor=1.00:1.00:1.00 / aq2=0 / aq3=0
Language : English
Default : Yes
Forced : No
Audio #1
ID : 2
Format : AC-3
Format/Info : Audio Coding 3
Mode extension : CM (complete main)
Format settings, Endianness : Big
Codec ID : A_AC3
Duration : 1h 56 min
Bit rate mode : Constant
Bit rate : 192 kb/s
Channel(s) : 2 channels
Channel positions : Front: L R
Sampling rate : 48.0 kHz
Frame rate : 31.250 FPS (1536 spf)
Compression mode : Lossy
Stream size : 160 MiB (11%)
Title : MVO, AC3 2.0 ~192 kbps
Language : Russian
Default : Yes
Forced : No
Audio #2
ID : 3
Format : AC-3
Format/Info : Audio Coding 3
Mode extension : CM (complete main)
Format settings, Endianness : Big
Codec ID : A_AC3
Duration : 1h 56 min
Bit rate mode : Constant
Bit rate : 384 kb/s
Channel(s) : 6 channels
Channel positions : Front: L C R, Side: L R, LFE
Sampling rate : 48.0 kHz
Frame rate : 31.250 FPS (1536 spf)
Compression mode : Lossy
Stream size : 320 MiB (21%)
Title : Original, AC3 5.1 ~384 kbps
Language : English
Default : No
Forced : No
Text #1
ID : 4
Format : UTF-8
Codec ID : S_TEXT/UTF8
Codec ID/Info : UTF-8 Plain Text
Language : Russian
Default : No
Forced : No
Text #2
ID : 5
Format : UTF-8
Codec ID : S_TEXT/UTF8
Codec ID/Info : UTF-8 Plain Text
Language : English
Default : No
Forced : No
Menu
00:00:00.000 : en:Chapter 1
00:09:48.000 : en:Chapter 2
00:17:32.000 : en:Chapter 3
00:23:27.000 : en:Chapter 4
00:33:53.000 : en:Chapter 5
00:41:00.000 : en:Chapter 6
00:52:25.000 : en:Chapter 7
00:57:33.000 : en:Chapter 8
01:03:05.000 : en:Chapter 9
01:09:28.000 : en:Chapter 10
01:16:08.000 : en:Chapter 11
01:25:20.000 : en:Chapter 12
01:35:36.000 : en:Chapter 13
01:45:25.000 : en:Chapter 14

x264

x264 [info]: frame I:1083 Avg QP:13.49 size: 39877
x264 [info]: frame P:38488 Avg QP:14.57 size: 14302
x264 [info]: frame B:128154 Avg QP:16.95 size: 3725
x264 [info]: consecutive B-frames: 1.0% 0.9% 2.2% 63.5% 9.9% 17.8% 2.3% 1.6% 0.4% 0.5%
x264 [info]: mb I I16..4: 9.7% 72.3% 18.0%
x264 [info]: mb P I16..4: 0.7% 3.9% 0.5% P16..4: 41.5% 33.2% 16.1% 0.0% 0.0% skip: 4.1%
x264 [info]: mb B I16..4: 0.0% 0.2% 0.0% B16..8: 41.1% 9.6% 1.5% direct: 3.2% skip:44.5% L0:44.3% L1:50.1% BI: 5.6%
x264 [info]: 8x8 transform intra:75.4% inter:66.3%
x264 [info]: direct mvs spatial:100.0% temporal:0.0%
x264 [info]: coded y,uvDC,uvAC intra: 80.7% 75.8% 54.0% inter: 11.7% 11.4% 0.9%
x264 [info]: i16 v,h,dc,p: 21% 12% 13% 54%
x264 [info]: i8 v,h,dc,ddl,ddr,vr,hd,vl,hu: 8% 8% 7% 10% 14% 13% 13% 12% 14%
x264 [info]: i4 v,h,dc,ddl,ddr,vr,hd,vl,hu: 7% 7% 4% 13% 16% 13% 13% 11% 15%
x264 [info]: i8c dc,h,v,p: 39% 31% 19% 12%
x264 [info]: Weighted P-Frames: Y:1.8% UV:0.7%
x264 [info]: ref P L0: 45.4% 4.0% 18.6% 7.7% 6.2% 4.7% 4.1% 2.2% 2.0% 1.8% 1.7% 1.6% 0.0% 0.0%
x264 [info]: ref B L0: 68.0% 13.6% 6.5% 3.2% 2.4% 2.0% 1.6% 1.0% 0.9% 0.6% 0.3%
x264 [info]: ref B L1: 93.6% 6.4%
x264 [info]: kb/s:1224.82

Скриншоты

с названием

[Profile]  [PM] 
Display posts:    
Reply to topic

Current time is: 16-Dec 10:09

All times are UTC + 2



You cannot post new topics in this forum
You cannot reply to topics in this forum
You cannot edit your posts in this forum
You cannot delete your posts in this forum
You cannot vote in polls in this forum
You cannot attach files in this forum
You cannot download files in this forum