Справедливость или хаос / Расследование / L\'enquête / The Clearstream Affair (Венсан Гаренк / Vincent Garenq) [2014, Франция, Бельгия, Люксембург, детектив, триллер, HDRip] MVO (Первый канал) + Original Fre

Reply to topic
 
Author
Message

Satyr ®

Online

Gender: Unknown

Longevity: 11 years

Posts: 15401

Reputation: 55 [+] [-]

Satyr · Post 01-Feb-2017 19:25

[Quote] 

Справедливость или хаос / Расследование / L'enquête / The Clearstream Affair
Страна: Франция, Бельгия, Люксембург
Студия: Nord-Ouest Productions, Samsa Film, Artémis Productions, France 3 Cinéma, Mars Films, Cool Industrie, Belgacom, Canal+, Ciné+, France Télévisions
Жанр: Детектив, триллер
Год выпуска: 2014
Продолжительность: 01:46:09
Перевод: Профессиональный (многоголосый закадровый) кинокомпания Эй Би Видео по заказу Первого канала
Cубтитры: нет
Оригинальная аудиодорожка: Французский
Режиссер: Венсан Гаренк / Vincent Garenq
В ролях: Жиль Леллуш, Шарль Берлинг, Лорен Капеллуто, Флоранс Луаре, Кристиан Кмиотек, Грегуар Бонне, Антуан Гуи, Эрик Наггар, Жиль Арбона, Эрве Фаллю, Лорен Д’Ольсе, Томас Серафин, Жан-Поль Бриссар, Мари-Кристин Орри, Марк Олингер, Жоэль Десо, Жермен Вагнер
Описание: Политический триллер о том, к чему может привести журналистское расследование, с Жилем Леллушем в главной роли. Разоблачение журналистом Дэни Робером темных делишек банковской фирмы Clearstream, вызывает настоящую бурю в европейском финансовом мире. Продолжая разбираться в хитросплетениях сомнительных международных банковских операций, Робер знакомится с судьей Рено ван Раимбеке, возглавляющим масштабное расследование коррупционных схем. Вскоре совместные поиски позволяют им сделать выводы, обнародование которых может иметь весьма серьезные последствия для Франции и всей Европы...
Дополнительная информация:
Автор релиза -
Многоголосый перевод записан мной с канала Первый HD 30.01.2017. Синхронизация - ylnian
Источник для рипа - L.Enquete.2014.FRENCH.1080p.BluRay.x264-FiDO


Сэмпл: https://yadi.sk/i/hoi_msWq3BzLWC
Качество видео: HDRip
Формат видео: AVI
Видео: XviD, 720x304 (2,35:1), 24.000 fps, 1376 kbps, 0.262 bit/pixel
Аудио 1: Русский AC3, 48000 Гц, 2ch, 192 kbps
Аудио 2: Французский AC3, 48000 Гц, 6ch, 384 kbps

MediaInfo

Общее
Полное имя : E:\Lenquete.2014.HDRip-ylnian.avi
Формат : AVI
Формат/Информация : Audio Video Interleave
Размер файла : 1,46 Гбайт
Продолжительность : 1 ч. 46 м.
Общий поток : 1966 Кбит/сек
Название фильма : L'enquete - 2014 - HDRip - ylnian
Программа кодирования : VirtualDubMod 1.5.10.2 (build 2540/release)
Библиотека кодирования : VirtualDubMod build 2540/release
Видео
Идентификатор : 0
Формат : MPEG-4 Visual
Профиль формата : Advanced Simple@L5
Параметр BVOP формата : 1
Параметр QPel формата : Нет
Параметр GMC формата : Без точки перехода
Параметр матрицы формата : Default (MPEG)
Идентификатор кодека : XVID
Идентификатор кодека/Подсказка : XviD
Продолжительность : 1 ч. 46 м.
Битрейт : 1376 Кбит/сек
Ширина : 720 пикселей
Высота : 304 пикселя
Соотношение сторон : 2,35:1
Частота кадров : 24,000 кадра/сек
Цветовое пространство : YUV
Субдискретизация насыщенности : 4:2:0
Битовая глубина : 8 бит
Тип развёртки : Прогрессивная
Метод сжатия : С потерями
Бит/(Пиксели*Кадры) : 0.262
Размер потока : 1,02 Гбайт (70%)
Библиотека кодирования : XviD 67
Аудио #1
Идентификатор : 1
Формат : AC-3
Формат/Информация : Audio Coding 3
Расширение режима : CM (complete main)
Параметр Endianness формата : Big
Идентификатор кодека : 2000
Продолжительность : 1 ч. 46 м.
Вид битрейта : Постоянный
Битрейт : 192 Кбит/сек
Каналы : 2 канала
Расположение каналов : Front: L R
Частота : 48,0 КГц
Частота кадров : 31,250 кадров/сек (1536 spf)
Метод сжатия : С потерями
Размер потока : 146 Мбайт (10%)
Выравнивание : Разделение по промежуткам
Продолжительность промежутка : 42 мс. (1,00 видеокадр)
Время предзагрузки промежутка : 500 мс.
Заголовок : RUS - MVO
Аудио #2
Идентификатор : 2
Формат : AC-3
Формат/Информация : Audio Coding 3
Расширение режима : CM (complete main)
Параметр Endianness формата : Big
Идентификатор кодека : 2000
Продолжительность : 1 ч. 46 м.
Вид битрейта : Постоянный
Битрейт : 384 Кбит/сек
Каналы : 6 каналов
Расположение каналов : Front: L C R, Side: L R, LFE
Частота : 48,0 КГц
Частота кадров : 31,250 кадров/сек (1536 spf)
Метод сжатия : С потерями
Размер потока : 292 Мбайт (20%)
Выравнивание : Разделение по промежуткам
Продолжительность промежутка : 42 мс. (1,00 видеокадр)
Время предзагрузки промежутка : 500 мс.
Заголовок : FRA

Сравнение

Сравнение с релизом от cooman1:
- видеоряд - http://screenshotcomparison.com/comparison/199034
- аудиодорожка с переводом - http://screenshotcomparison.com/comparison/199030

Скриншот c названием фильма

Скриншоты

[Profile]  [PM] 
Display posts:    
Reply to topic

Current time is: 09-Aug 19:32

All times are UTC + 2



You cannot post new topics in this forum
You cannot reply to topics in this forum
You cannot edit your posts in this forum
You cannot delete your posts in this forum
You cannot vote in polls in this forum
You cannot attach files in this forum
You cannot download files in this forum