Война против всех / War on Everyone (Джон Майкл МакДона / John Michael McDonagh) [2016, Великобритания, комедия, BDRip 720p] Dub + Original eng + Sub (rus, eng)

Reply to topic
 
Author
Message

Faust ®

Gender: Unknown

Longevity: 8 years 2 months

Posts: 13748

Reputation: 0 [+] [-]

Faust · Post 01-Feb-2017 19:25

[Quote] 

Война против всех / War on Everyone«They're gonna kick your ass and get away with it»- Страна: Великобритания
Жанр: комедия
Год выпуска: 2016
Продолжительность: 01:37:55
Перевод: Профессиональный (дублированный) (iTunes)
Оригинальная аудиодорожка: английский
Субтитры: русские (форс., полные) английские (полные, SDH)
Навигация по главам: есть
Режиссер: Джон Майкл МакДона / John Michael McDonagh
В ролях: Александр Скарсгард (Terry Monroe), Майкл Пенья (Bob Bolaño), Тесса Томпсон (Jackie Hollis), Тео Джеймс (Lord James Mangan), Калеб Лэндри Джонс (Birdwell), Малкольм Баррет (Reggie), Дэвид Уилмот (Pádraic Power), Стефани Сигман (Delores), Пол Райзер (Lt. Gerry Stanton), Джеффри Померой (Jimmy Harris), Тейт Флетчер (Lionel Webb), Альма Сиснерос (Bartender)
Описание: Двое коррумпированных копов-отморозков из Нью-Мексико прессуют всех, кто попадается им под руку... или под колеса авто. Судьба подкидывает им шанс срубить целый миллион долларов, но на смачный куш также претендует эксцентричный английский лорд не без странных пристрастий. В борьбе за заслуженный улов напарники случайно узнают о стрёмных секретах красавчика-лорда и впрягаются нести возмездие. Плохим копам не терпится попробовать нечто совсем новое - борьбу за справедливость... ну, за то, как они понимают справедливость.- -Тип релиза: BDRip 720p
Контейнер: MKV
Видео: x264@L4.1, 1280x536 (2.40:1) 24 fps, ~5017 kbps avg
Аудио 1: 48 kHz, AC3 Dolby Digital, 5.1 (Front: L C R, Side: L R, LFE) ch, ~384 kbps, [русский]
Аудио 2: 48 kHz, DTS, 5.1 (Front: L C R, Side: L R, LFE) ch, ~1509 kbps, [английский]
Формат субтитров: softsub (SRT)-

MediaInfo | x264 log

Format : Matroska
Format version : Version 4 / Version 2
File size : 4.82 GiB
Duration : 1h 37 min
Overall bit rate : 7 051 kb/s
Movie name : Война против всех / War on Everyone (2016) :: AFM ::
Encoded date : UTC 2017-01-31 10:35:10
Writing application : mkvmerge v8.3.0 ('Over the Horizon') 32bit
Writing library : libebml v1.3.1 + libmatroska v1.4.2
Video
ID : 1
Format : AVC
Format/Info : Advanced Video Codec
Format profile : High@L4.1
Format settings, CABAC : Yes
Format settings, ReFrames : 11 frames
Codec ID : V_MPEG4/ISO/AVC
Duration : 1h 37 min
Bit rate : 5 017 kb/s
Width : 1 280 pixels
Height : 536 pixels
Display aspect ratio : 2.40:1
Frame rate mode : Constant
Frame rate : 24.000 FPS
Color space : YUV
Chroma subsampling : 4:2:0
Bit depth : 8 bits
Scan type : Progressive
Bits/(Pixel*Frame) : 0.305
Stream size : 3.43 GiB (71%)
Title : BDRip by AFM
Writing library : x264 core 148 r2744+55 950084e t_mod_Custom [8-bit@all X86_64]
Encoding settings : cabac=1 / ref=11 / deblock=1:-3:-3 / analyse=0x3:0x133 / me=umh / subme=10 / psy=1 / fade_compensate=0.00 / psy_rd=1.00:0.00 / mixed_ref=1 / me_range=32 / chroma_me=1 / trellis=2 / 8x8dct=1 / cqm=0 / deadzone=21,11 / fast_pskip=0 / chroma_qp_offset=-2 / threads=6 / lookahead_threads=1 / sliced_threads=0 / nr=0 / decimate=1 / interlaced=0 / bluray_compat=0 / constrained_intra=0 / fgo=0 / bframes=10 / b_pyramid=2 / b_adapt=2 / b_bias=0 / direct=3 / weightb=1 / open_gop=0 / weightp=2 / keyint=240 / keyint_min=23 / scenecut=40 / intra_refresh=0 / rc_lookahead=40 / rc=crf / mbtree=0 / crf=17.0000 / qcomp=0.65 / qpmin=0:0:0 / qpmax=69:69:69 / qpstep=4 / vbv_maxrate=50000 / vbv_bufsize=62500 / crf_max=0.0 / nal_hrd=none / filler=0 / ip_ratio=1.35 / pb_ratio=1.20 / aq=3:0.80 / aq-sensitivity=10.00 / aq-factor=1.00:1.00:1.00 / aq2=0 / aq3=0
Language : English
Default : Yes
Forced : No
Audio #1
ID : 2
Format : AC-3
Format/Info : Audio Coding 3
Mode extension : CM (complete main)
Format settings, Endianness : Big
Codec ID : A_AC3
Duration : 1h 37 min
Bit rate mode : Constant
Bit rate : 384 kb/s
Channel(s) : 6 channels
Channel positions : Front: L C R, Side: L R, LFE
Sampling rate : 48.0 kHz
Frame rate : 31.250 FPS (1536 spf)
Compression mode : Lossy
Stream size : 269 MiB (5%)
Title : Dub [iTunes] AC3 5.1 ~384 kbps
Language : Russian
Default : Yes
Forced : No
Audio #2
ID : 3
Format : DTS
Format/Info : Digital Theater Systems
Mode : 16
Format settings, Endianness : Big
Codec ID : A_DTS
Duration : 1h 37 min
Bit rate mode : Constant
Bit rate : 1 509 kb/s
Channel(s) : 6 channels
Channel positions : Front: L C R, Side: L R, LFE
Sampling rate : 48.0 kHz
Frame rate : 93.750 FPS (512 spf)
Bit depth : 24 bits
Compression mode : Lossy
Stream size : 1.03 GiB (21%)
Title : Original, DTS 5.1 ~1509 kbps
Language : English
Default : No
Forced : No
Text #1
ID : 4
Format : UTF-8
Codec ID : S_TEXT/UTF8
Codec ID/Info : UTF-8 Plain Text
Title : forced
Language : Russian
Default : Yes
Forced : No
Text #2
ID : 5
Format : UTF-8
Codec ID : S_TEXT/UTF8
Codec ID/Info : UTF-8 Plain Text
Language : Russian
Default : No
Forced : No
Text #3
ID : 6
Format : UTF-8
Codec ID : S_TEXT/UTF8
Codec ID/Info : UTF-8 Plain Text
Language : English
Default : No
Forced : No
Text #4
ID : 7
Format : UTF-8
Codec ID : S_TEXT/UTF8
Codec ID/Info : UTF-8 Plain Text
Title : SDH
Language : English
Default : No
Forced : No
Menu
00:00:00.000 : en:Chapter 1
00:09:14.875 : en:Chapter 2
00:16:29.457 : en:Chapter 3
00:29:19.875 : en:Chapter 4
00:38:06.083 : en:Chapter 5
00:46:43.875 : en:Chapter 6
00:55:52.458 : en:Chapter 7
01:03:24.458 : en:Chapter 8
01:12:57.457 : en:Chapter 9
01:19:10.457 : en:Chapter 10
01:25:15.457 : en:Chapter 11
01:31:57.457 : en:Chapter 12

x264

x264 [info]: frame I:1374 Avg QP:13.78 size:126383
x264 [info]: frame P:28392 Avg QP:15.45 size: 44252
x264 [info]: frame B:111228 Avg QP:17.04 size: 21175
x264 [info]: consecutive B-frames: 2.1% 1.5% 7.5% 11.3% 14.5% 52.2% 5.6% 1.7% 1.7% 0.9% 1.0%
x264 [info]: mb I I16..4: 5.7% 79.5% 14.8%
x264 [info]: mb P I16..4: 1.0% 15.3% 1.3% P16..4: 30.3% 24.3% 18.5% 0.7% 0.2% skip: 8.2%
x264 [info]: mb B I16..4: 0.1% 2.6% 0.1% B16..8: 34.4% 17.4% 7.0% direct: 7.6% skip:30.9% L0:47.6% L1:39.2% BI:13.2%
x264 [info]: 8x8 transform intra:87.6% inter:57.0%
x264 [info]: direct mvs spatial:99.7% temporal:0.3%
x264 [info]: coded y,uvDC,uvAC intra: 92.5% 92.0% 83.8% inter: 35.4% 32.7% 14.8%
x264 [info]: i16 v,h,dc,p: 54% 10% 8% 28%
x264 [info]: i8 v,h,dc,ddl,ddr,vr,hd,vl,hu: 12% 9% 14% 9% 12% 11% 11% 10% 12%
x264 [info]: i4 v,h,dc,ddl,ddr,vr,hd,vl,hu: 14% 9% 5% 9% 14% 14% 13% 11% 12%
x264 [info]: i8c dc,h,v,p: 54% 16% 15% 15%
x264 [info]: Weighted P-Frames: Y:3.3% UV:2.4%
x264 [info]: ref P L0: 42.8% 8.8% 18.1% 7.0% 6.5% 4.3% 4.2% 2.2% 2.3% 1.7% 1.9% 0.1% 0.0%
x264 [info]: ref B L0: 63.4% 13.8% 7.4% 4.4% 3.2% 2.8% 2.2% 1.5% 0.9% 0.4%
x264 [info]: ref B L1: 92.8% 7.2%
x264 [info]: kb/s:5154.67

Скриншоты

[Profile]  [PM] 
Display posts:    
Reply to topic

Current time is: 15-Dec 05:33

All times are UTC + 2



You cannot post new topics in this forum
You cannot reply to topics in this forum
You cannot edit your posts in this forum
You cannot delete your posts in this forum
You cannot vote in polls in this forum
You cannot attach files in this forum
You cannot download files in this forum