Девятая жизнь Луи Дракса / The 9th Life of Louis Drax (Александр Ажа / Alexandre Aja) [2016, Великобритания, Канада, США, триллер, детектив, BDRip 720p] Dub + Original eng + Sub (eng)

Reply to topic
 
Author
Message

Faust ®

Gender: Unknown

Longevity: 8 years 2 months

Posts: 13748

Reputation: 0 [+] [-]

Faust · Post 01-Feb-2017 23:25

[Quote] 

Девятая жизнь Луи Дракса / The 9th Life of Louis Drax«A mystery beyond reality»- Страна: Великобритания, Канада, США
Жанр: триллер, детектив
Год выпуска: 2016
Продолжительность: 01:48:12
Перевод: Профессиональный (дублированный) (iTunes)
Оригинальная аудиодорожка: английский
Субтитры: английские
Навигация по главам: есть
Режиссер: Александр Ажа / Alexandre Aja
В ролях: Джейми Дорнан (Dr. Allan Pascal), Эйден Лонгуорт (Louis Drax), Сара Гадон (Natalie), Майкл Адамуэйт (Doctor (C-Section)), Аарон Пол (Peter), Бэкхам Скойе (Louis (Age 2)), Адам Абрамс (Doctor (X-Ray)), Молли Паркер (Dalton), Терри Чен (Elliott), Рэнди Линн (ER Nurse), Джон Хэйнсуорт (ER Patient), Голди Хоффман (ER Nurse)
Описание: Знаменитый психолог Аллан Паскаль пытается раскрыть тайны, которые хранит сознание 9-летнего Луи Дракса, впавшего в кому после таинственного несчастного случая. Влюбленный в мать мальчика доктор подозревает в случившемся отца. Но чем глубже он погружается в подсознание ребенка, тем сильнее размываются границы между мистикой и реальностью...- -Тип релиза: BDRip 720p (MTeam)
Контейнер: MKV
Видео: x264@L4.1, 1280x536 (2.40:1), 23,976 fps, ~5503 kbps
Аудио 1: 48 kHz, AC3 Dolby Digital, 5.1 (Front: L C R, Side: L R, LFE) ch, ~ 384 kbps - русский
Аудио 2: 48 kHz, DTS, 5.1 (Front: L C R, Side: L R, LFE) ch, ~ 1509 kbps - английский
Формат субтитров: softsub (SRT)-

MediaInfo

Format : Matroska
Format version : Version 4 / Version 2
File size : 5.59 GiB
Duration : 1h 48 min
Overall bit rate : 7 396 kb/s
Movie name : Девятая жизнь Луи Дракса / The 9th Life of Louis Drax (2016) :: AFM ::
Encoded date : UTC 2017-01-30 01:48:18
Writing application : mkvmerge v8.3.0 ('Over the Horizon') 32bit
Writing library : libebml v1.3.1 + libmatroska v1.4.2
Video
ID : 1
Format : AVC
Format/Info : Advanced Video Codec
Format profile : High@L4.1
Format settings, CABAC : Yes
Format settings, ReFrames : 12 frames
Codec ID : V_MPEG4/ISO/AVC
Duration : 1h 48 min
Bit rate : 5 503 kb/s
Width : 1 280 pixels
Height : 536 pixels
Display aspect ratio : 2.40:1
Frame rate mode : Constant
Frame rate : 23.976 (24000/1001) FPS
Color space : YUV
Chroma subsampling : 4:2:0
Bit depth : 8 bits
Scan type : Progressive
Bits/(Pixel*Frame) : 0.335
Stream size : 4.05 GiB (72%)
Title : BDRip by MTeam
Writing library : x264 core 146 r2538 121396c
Encoding settings : cabac=1 / ref=12 / deblock=1:-2:-2 / analyse=0x3:0x133 / me=umh / subme=10 / psy=1 / psy_rd=1.00:0.00 / mixed_ref=1 / me_range=32 / chroma_me=1 / trellis=2 / 8x8dct=1 / cqm=0 / deadzone=21,11 / fast_pskip=0 / chroma_qp_offset=-2 / threads=12 / lookahead_threads=1 / sliced_threads=0 / nr=0 / decimate=0 / interlaced=0 / bluray_compat=0 / constrained_intra=0 / bframes=6 / b_pyramid=2 / b_adapt=2 / b_bias=0 / direct=3 / weightb=1 / open_gop=0 / weightp=2 / keyint=230 / keyint_min=22 / scenecut=40 / intra_refresh=0 / rc_lookahead=60 / rc=2pass / mbtree=1 / bitrate=5503 / ratetol=1.0 / qcomp=0.60 / qpmin=0 / qpmax=69 / qpstep=4 / cplxblur=20.0 / qblur=0.5 / vbv_maxrate=50000 / vbv_bufsize=50000 / nal_hrd=none / filler=0 / ip_ratio=1.40 / aq=1:1.00
Language : English
Default : Yes
Forced : No
Audio #1
ID : 2
Format : AC-3
Format/Info : Audio Coding 3
Mode extension : CM (complete main)
Format settings, Endianness : Big
Codec ID : A_AC3
Duration : 1h 48 min
Bit rate mode : Constant
Bit rate : 384 kb/s
Channel(s) : 6 channels
Channel positions : Front: L C R, Side: L R, LFE
Sampling rate : 48.0 kHz
Frame rate : 31.250 FPS (1536 spf)
Compression mode : Lossy
Stream size : 297 MiB (5%)
Title : Dub [iTunes] AC3 5.1 ~384 kbps
Language : Russian
Default : Yes
Forced : No
Audio #2
ID : 3
Format : DTS
Format/Info : Digital Theater Systems
Mode : 16
Format settings, Endianness : Big
Codec ID : A_DTS
Duration : 1h 48 min
Bit rate mode : Constant
Bit rate : 1 509 kb/s
Channel(s) : 6 channels
Channel positions : Front: L C R, Side: L R, LFE
Sampling rate : 48.0 kHz
Frame rate : 93.750 FPS (512 spf)
Bit depth : 24 bits
Compression mode : Lossy
Stream size : 1.14 GiB (20%)
Title : Original, DTS 5.1 ~1509 kbps
Language : English
Default : No
Forced : No
Text
ID : 4
Format : UTF-8
Codec ID : S_TEXT/UTF8
Codec ID/Info : UTF-8 Plain Text
Language : English
Default : No
Forced : No
Menu
00:00:00.000 : en:Chapter 1
00:06:47.365 : en:Chapter 2
00:12:14.817 : en:Chapter 3
00:17:22.290 : en:Chapter 4
00:22:47.656 : en:Chapter 5
00:30:06.054 : en:Chapter 6
00:37:27.661 : en:Chapter 7
00:43:14.382 : en:Chapter 8
00:48:41.293 : en:Chapter 9
00:57:06.505 : en:Chapter 10
01:02:41.046 : en:Chapter 11
01:07:14.070 : en:Chapter 12
01:14:28.255 : en:Chapter 13
01:20:15.393 : en:Chapter 14
01:25:10.395 : en:Chapter 15
01:38:36.033 : en:Chapter 16

Скриншоты

[Profile]  [PM] 
Display posts:    
Reply to topic

Current time is: 15-Dec 13:27

All times are UTC + 2



You cannot post new topics in this forum
You cannot reply to topics in this forum
You cannot edit your posts in this forum
You cannot delete your posts in this forum
You cannot vote in polls in this forum
You cannot attach files in this forum
You cannot download files in this forum