Девушка в поезде / The Girl on the Train (Тейт Тейлор / Tate Taylor) [2016, США, триллер, драма, детектив, BDRip 720p] Dub + Sub Rus, Eng + Original Eng

Reply to topic
 
Author
Message

Faust ®

Gender: Unknown

Longevity: 8 years 2 months

Posts: 13748

Reputation: 0 [+] [-]

Faust · Post 02-Feb-2017 03:30

[Quote] 

Девушка в поезде / The Girl on the Train
Страна: США
Жанр: триллер, драма, детектив
Год выпуска: 2016
Продолжительность: 01:52:05
Перевод: Профессиональный (дублированный)
Cубтитры: Russian (Forced, Blu-ray EUR), Russian (Blu-ray EUR), English, English (SDH), English (Commentary)
Оригинальная аудиодорожка: английский-Режиссер: Тейт Тейлор / Tate Taylor-В ролях: Эмили Блант, Хейли Беннетт, Ребекка Фергюсон, Джастин Теру, Люк Эванс, Эдгар Рамирес, Лора Припон, Эллисон Дженни, Даррен Голдштейн, Лиза Кудроу-Описание: Каждый день поезд проносит Рэйчел мимо очаровательного коттеджа, где живет идеальная на первый взгляд пара. Но однажды идиллия разрушится – прекрасная незнакомка бесследно исчезнет. Рэйчел окажется втянута в весьма запутанную историю, ведь только она видела из окна то, что было скрыто ото всех.-Релиз:
-Качество видео: BDRip | Рип от IDE!
Формат видео: MKV
Видео: 1280x692 at 23.976 fps, x264, ~9324 kbps avg
Аудио 1: Russian: 48 kHz, DTS, 3/2 (L,C,R,l,r) + LFE ch, ~768.00 kbps avg |Дубляж, Blu-ray EUR|
Аудио 2: English: 48 kHz, DTS, 3/2 (L,C,R,l,r) + LFE ch, ~1536.00 kbps avg
Аудио 3: English: 48 kHz, AC3, 2/0 (L,R) ch, ~192.00 kbps avg |Feature Audio Commentary with Director Tate Taylor|-Сэмпл-
Сохранены оригинальные главы как на Blu-ray.
Исходный WEB-DL куплен в рамках сервиса "Копилка".
Debanded the intro.

Source vs. IDE vs. HDChina



Знаете ли вы, что...

• Крис Эванс рассматривался на роль Тома и даже начал переговоры со студией, но выбыл из-за занятости в другом проекте. Его заменил Джастин Теру.
• Узнаваемая благодаря своему британскому акценту, Эмили Блант сыграет британку в 19-й раз.
• Кейт Мара была утверждена на роль Меган, но выбыла из проекта. В конечном итоге ее заменила Хейли Беннетт.
• На роль Меган также рассматривалась Марго Робби.
• Джаред Лето рассматривался на роль Скотта, но он был занят на другом проекте. Его заменил Люк Эванс.
• Эмили Блант и Ребекка Фергюсон обе снялись в блокбастерах с Томом Крузом. Блант в фильме Грань будущего (2014), а Фергюсон в фильме Миссия невыполнима: Племя изгоев (2015).
• Во время съемок Эмили Блант узнала, что беременна вторым ребенком. Как ни странно, это уже второй раз, когда ей удается зачать ребенка, играя при этом бесплодную героиню.
• Фильм снят по мотивам романа Полы Хокинс «Девушка в поезде» (The Girl on the Train).

MI

Format                      : Matroska
Format version              : Version 2
File size                   : 9.39 GiB
Duration                    : 1 h 52 min
Overall bit rate            : 12.0 Mb/s
Movie name                  : The Girl on the Train (2016) - Release for HDCLUB
Encoded date                : UTC 2017-01-25 19:35:21
Writing application         : mkvmerge v3.4.0 ('Rapunzel') built on May 15 2010 09:38:20
Writing library             : libebml v0.8.0 + libmatroska v0.9.0
Cover                       : Yes
Attachments                 : Cover.jpg
Video
ID                          : 1
Format                      : AVC
Format/Info                 : Advanced Video Codec
Format profile              : High@L4.1
Format settings, CABAC      : Yes
Format settings, ReFrames   : 9 frames
Codec ID                    : V_MPEG4/ISO/AVC
Duration                    : 1 h 52 min
Bit rate                    : 9 292 kb/s
Width                       : 1 280 pixels
Height                      : 692 pixels
Display aspect ratio        : 1.85:1
Frame rate mode             : Constant
Frame rate                  : 23.976 (24000/1001) FPS
Color space                 : YUV
Chroma subsampling          : 4:2:0
Bit depth                   : 8 bits
Scan type                   : Progressive
Bits/(Pixel*Frame)          : 0.438
Stream size                 : 7.27 GiB (77%)
Title                       : The Girl on the Train (2016) - Release for HDCLUB
Writing library             : x264 core 142 r2431+42 c69a006 tMod [8-bit@4:2:0 X86_64]
Encoding settings           : cabac=1 / ref=9 / deblock=1:-3:-3 / analyse=0x3:0x133 / me=umh / subme=11 / psy=1 / fade_compensate=0.00 / psy_rd=1.05:0.00 / mixed_ref=1 / me_range=32 / chroma_me=1 / trellis=2 / 8x8dct=1 / cqm=0 / deadzone=21,11 / fast_pskip=0 / chroma_qp_offset=-2 / threads=6 / lookahead_threads=1 / sliced_threads=0 / nr=0 / decimate=0 / interlaced=0 / bluray_compat=0 / constrained_intra=0 / fgo=0 / bframes=12 / b_pyramid=2 / b_adapt=2 / b_bias=0 / direct=3 / weightb=1 / open_gop=0 / weightp=2 / keyint=250 / keyint_min=23 / scenecut=40 / intra_refresh=0 / rc_lookahead=60 / rc=crf / mbtree=0 / crf=16.1000 / qcomp=0.65 / qpmin=0:0:0 / qpmax=69:69:69 / qpstep=4 / vbv_maxrate=62500 / vbv_bufsize=78125 / crf_max=0.0 / nal_hrd=none / filler=0 / ip_ratio=1.30 / pb_ratio=1.20 / aq=3:0.75 / aq-sensitivity=10.00 / aq-factor=1.00:1.00:1.00 / aq2=0 / aq3=0 / zones=26,1057,crf=15/51111,51141,crf=14.5/53422,54382,crf=14.5/55050,55309,crf=14.5/74325,74399,crf=14.5/74452,74505,crf=14.5/102142,102309,crf=14.5/153095,161239,crf=21
Language                    : English
Default                     : Yes
Forced                      : No
Audio #1
ID                          : 2
Format                      : DTS
Format/Info                 : Digital Theater Systems
Mode                        : 16
Format settings, Endianness : Big
Codec ID                    : A_DTS
Duration                    : 1 h 52 min
Bit rate mode               : Constant
Bit rate                    : 768 kb/s
Channel(s)                  : 6 channels
Channel positions           : Front: L C R, Side: L R, LFE
Sampling rate               : 48.0 kHz
Frame rate                  : 93.750 FPS (512 spf)
Bit depth                   : 24 bits
Compression mode            : Lossy
Stream size                 : 616 MiB (6%)
Title                       : DTS 5.1 @ 768 kbps - DUB, Blu-ray EUR
Language                    : Russian
Default                     : Yes
Forced                      : No
Audio #2
ID                          : 3
Format                      : DTS
Format/Info                 : Digital Theater Systems
Mode                        : 16
Format settings, Endianness : Big
Codec ID                    : A_DTS
Duration                    : 1 h 52 min
Bit rate mode               : Constant
Bit rate                    : 1 509 kb/s
Channel(s)                  : 6 channels
Channel positions           : Front: L C R, Side: L R, LFE
Sampling rate               : 48.0 kHz
Frame rate                  : 93.750 FPS (512 spf)
Bit depth                   : 24 bits
Compression mode            : Lossy
Delay relative to video     : 11 ms
Stream size                 : 1.18 GiB (13%)
Title                       : DTS 5.1 @ 1536 kbps
Language                    : English
Default                     : No
Forced                      : No
Audio #3
ID                          : 4
Format                      : AC-3
Format/Info                 : Audio Coding 3
Format profile              : Dolby Digital
Mode extension              : CM (complete main)
Format settings, Endianness : Big
Codec ID                    : A_AC3
Duration                    : 1 h 52 min
Bit rate mode               : Constant
Bit rate                    : 192 kb/s
Channel(s)                  : 2 channels
Channel positions           : Front: L R
Sampling rate               : 48.0 kHz
Frame rate                  : 31.250 FPS (1536 spf)
Bit depth                   : 16 bits
Compression mode            : Lossy
Stream size                 : 154 MiB (2%)
Title                       : AC3 2.0 @ 192 kbps - Commentary with director Tate Taylor
Language                    : English
Default                     : No
Forced                      : No
Text #1
ID                          : 5
Format                      : UTF-8
Codec ID                    : S_TEXT/UTF8
Codec ID/Info               : UTF-8 Plain Text
Title                       : Forced, Blu-ray EUR
Language                    : Russian
Default                     : Yes
Forced                      : No
Text #2
ID                          : 6
Format                      : UTF-8
Codec ID                    : S_TEXT/UTF8
Codec ID/Info               : UTF-8 Plain Text
Title                       : Blu-ray EUR
Language                    : Russian
Default                     : No
Forced                      : No
Text #3
ID                          : 7
Format                      : UTF-8
Codec ID                    : S_TEXT/UTF8
Codec ID/Info               : UTF-8 Plain Text
Language                    : English
Default                     : No
Forced                      : No
Text #4
ID                          : 8
Format                      : UTF-8
Codec ID                    : S_TEXT/UTF8
Codec ID/Info               : UTF-8 Plain Text
Title                       : SDH
Language                    : English
Default                     : No
Forced                      : No
Text #5
ID                          : 9
Format                      : UTF-8
Codec ID                    : S_TEXT/UTF8
Codec ID/Info               : UTF-8 Plain Text
Title                       : Commentary
Language                    : English
Default                     : No
Forced                      : No
Menu
00:00:00.000                : en:00:00:00.000
00:06:01.778                : en:00:06:01.778
00:09:29.903                : en:00:09:29.903
00:18:15.970                : en:00:18:15.970
00:25:26.150                : en:00:25:26.150
00:32:04.506                : en:00:32:04.506
00:37:04.973                : en:00:37:04.973
00:44:52.315                : en:00:44:52.315
00:49:22.459                : en:00:49:22.459
00:55:07.012                : en:00:55:07.012
00:59:36.031                : en:00:59:36.031
01:03:34.811                : en:01:03:34.811
01:09:25.787                : en:01:09:25.787
01:14:36.430                : en:01:14:36.430
01:19:08.702                : en:01:19:08.702
01:23:44.728                : en:01:23:44.728
01:28:07.491                : en:01:28:07.491
01:33:49.457                : en:01:33:49.457
01:38:54.554                : en:01:38:54.554
01:45:55.182                : en:01:45:55.182

Скриншоты

[Profile]  [PM] 
Display posts:    
Reply to topic

Current time is: 15-Dec 13:26

All times are UTC + 2



You cannot post new topics in this forum
You cannot reply to topics in this forum
You cannot edit your posts in this forum
You cannot delete your posts in this forum
You cannot vote in polls in this forum
You cannot attach files in this forum
You cannot download files in this forum