Ева за бортом / Eva über Bord (Петер Герсина / Peter Gersina) [2016, Германия, приключения, криминальная комедия, телефильм, SATRip] VO

Reply to topic
 
Author
Message

Satyr ®

Gender: Unknown

Longevity: 10 years

Posts: 14656

Reputation: 54 [+] [-]

Satyr · Post 02-Feb-2017 03:30

[Quote] 

Ева за бортом / Eva über Bord
Страна: Германия
Жанр: Приключения, криминальная комедия, телефильм
Год выпуска: 2016
Продолжительность: 01:42:02
Перевод: Одноголосый закадровый (Павел Морозов, по переводу Константина Ломова)
Cубтитры: отсутствуют
Режиссёр: Петер Герсина / Peter Gersina
В ролях: Питер Бенедикт, Гартман Юлия, Штефан Лука, Ампорн Панкраток, Чарли Руедпоканон, Нильс-Бруно Шмидт, и др.
Описание: Ева, журналистка немецкой газеты, согласно редакционному заданию, хочет написать рассказ о жизни на плавучем контейнеровозе... Но обстоятельства складываются таким образом, что она на пару с контрабандистом Ником попадает в плен к морским пиратам... Им, вместе и порознь, предстоят приключения в джунглях, и не только...

Качество видео: SATRip
Формат видео: AVI
Video: 720x400 (1.80:1), 25 fps, XviD build 73 ~1722 kbps avg, 0.24 bit/pixel
Audio: 48 kHz, MPEG Layer 3, 2 ch, ~224.00 kbps avg

AviInfo

File: Eva_über_Bord_2016_SATRip_[torrentsland.com.ua].aviTitle: Eva_uber_Bord_2016_SATRip_[torrentsland.com.ua]Author: networkCopyleft: networkGenre: Криминальная комедияCategory: Фильмы 2016-2017Comment: 1 февраля 2017 г.FileSize: 1427.91 Mb ( 1 497 268 224 bytes )Play length: 01:42:02.120 (153053 frames)Subtitles: Not PresentVideo: 720x400 (1.80:1), 25 fps, XviD build 73 ~1722 kbps avg, 0.24 bit/pixelAudio: 48 kHz, MPEG Layer 3, 2 ch, ~224.00 kbps avg

MediaInfo

ОбщееПолное имя                               : D:\Eva_über_Bord_2016_SATRip_[torrentsland.com.ua].aviФормат                                   : AVIФормат/Информация                        : Audio Video InterleaveРазмер файла                             : 1,39 ГбайтПродолжительность                        : 1 ч. 42 м.Общий поток                              : 1957 Кбит/секНазвание фильма                          : Eva_uber_Bord_2016_SATRip_[torrentsland.com.ua]Режиссёр                                 : networkЖанр                                     : Криминальная комедияПрограмма кодирования                    : VirtualDubModRus 1.5.10.2 (build 2542/release)Формат оригинала/Имя                     : Фильмы 2016-2017Правообладатель                          : networkПримечание                               : 1 февраля 2017 г.
ВидеоИдентификатор : 0Формат : MPEG-4 VisualПрофиль формата : Advanced Simple@L5Параметр BVOP формата : 1Параметр QPel формата : НетПараметр GMC формата : Без точки переходаПараметр матрицы формата : ВыборочнаяИдентификатор кодека : DX50Идентификатор кодека/Подсказка : DivX 5Продолжительность : 1 ч. 42 м.Битрейт : 1723 Кбит/секШирина : 720 пикселейВысота : 400 пикселейСоотношение сторон : 16:9Частота кадров : 25,000 кадров/секЦветовое пространство : YUVСубдискретизация насыщенности : 4:2:0Битовая глубина : 8 битТип развёртки : ПрогрессивнаяМетод сжатия : С потерямиБит/(Пиксели*Кадры) : 0.239Размер потока : 1,23 Гбайт (88%)Библиотека кодирования : XviD 73
АудиоИдентификатор : 1Формат : MPEG AudioВерсия формата : Version 1Профиль формата : Layer 3Режим : Joint stereoРасширение режима : MS StereoИдентификатор кодека : 55Идентификатор кодека/Подсказка : MP3Продолжительность : 1 ч. 42 м.Вид битрейта : ПостоянныйБитрейт : 224 Кбит/секКаналы : 2 каналаЧастота : 48,0 КГцМетод сжатия : С потерямиРазмер потока : 163 Мбайт (11%)Выравнивание : Соединение по промежуткамПродолжительность промежутка : 40 мс. (1,00 видеокадр)Время предзагрузки промежутка : 504 мс.Библиотека кодирования : LAME3.97

Скриншот c названием фильма

Скриншоты

[Profile]  [PM] 
Display posts:    
Reply to topic

Current time is: 16-Dec 10:43

All times are UTC + 2



You cannot post new topics in this forum
You cannot reply to topics in this forum
You cannot edit your posts in this forum
You cannot delete your posts in this forum
You cannot vote in polls in this forum
You cannot attach files in this forum
You cannot download files in this forum