Русская стройка (3 серии) [2015, Документальный, HDTV 1080i]

Reply to topic
 
Author
Message

Atila ®

Gender: Unknown

Longevity: 7 years 6 months

Posts: 2513

Reputation: 0 [+] [-]

Atila · Post 02-Feb-2017 03:30

[Quote] 

Русская стройка (3 серии)
Год выпуска: 2015
Страна: Россия
Жанр: Документальный
Продолжительность: 3 x 45 минут
Перевод: Не требуется
Описание: Грандиозное строительство немыслимо без новейших технологий и инженерных разработок, рабочего опыта и твердой руки профессионалов. Проект рассказывает о строительстве уникальных стратегических объектов современной России и о людях, которые их создают.
Список серий:
01. Русская стройка. БАМ. Вторая жизнь
02. Русская стройка. Геопорт
03. Русская стройка. Парк Патриот
Доп. информация: IPTV Remux (запись потока без перекодирования)
Тип релиза: HDTV 1080i
Контейнер: MKV
Видео: AVC H.264, 1920x1080i (16:9), 25 fps, 7155 kbps
Аудио: MPEG Audio, 2 channels, 192 kbps, 48KHz

Содержание серий:

01. Русская стройка. БАМ. Вторая жизнь: Сегодня проводится модернизация всей структуры. Используется уникальная технология закрытого перегона. По ней работают там, где двухпутные участки пути. Часть участка закрывается и оперативно выполняется полный комплекс работ. На однопутном участке всё сложнее. Но и там отработана своя система. Центр управления инфраструктурой РЖД находится в Москве. Туда поступает информация о выполненной работе. В смену работает 8 диспетчеров. В центр идёт вся информация по каждому виду работ. На протяжении всей магистрали нужно убрать отслужившие свой век рельсы со шпалами и заменить их на новые. Трактор убирает старый щебень, выравнивает поверхность и на неё кладут новую бетонную решётку. Всё это делают пока закрыт переезд. Щебень на БАМе используют один из самых крепких - мраморный. Он должен выдерживать миллионы тонн груза. Его добывают в Воронежской области. Каждый компонент бетонных шпал исследуется и готовится. Песок проверяется на влажность и на модуль крупности. Процесс изготовления шпал начинается с подготовки форм. От арматурного каркаса зависит прочность будущих шпал.
02. Русская стройка. Геопорт: В соответствии с постановлением правительства РФ от 2005 года в акватории Новороссийской бухты проходят мероприятия по созданию основного пункта базирования корабельных сил Черноморского флота на территории Российской Федерации. В создаваемом пункте базирования в акватории Геологического порта в Новороссийске, с учетом кораблей новой постройки, планируется разместить около 80-единиц боевых кораблей, судов и катеров обеспечения. Третий этап программы запланирован на 2017-2020 годы. В соответствии с планами будет построен перспективный основной пункт базирования кораблей и судов Черноморского флота, пункт базирования катеров и судов на Темрюке, обустроена инфраструктура морской авиации, подразделений морской пехоты и береговых войск, построен объединенный склад хранения вооружения, военной техники и технического имущества.
03. Русская стройка. Парк Патриот: Военно-патриотический парк культуры и отдыха Вооружённых Сил Российской Федерации "Патриот" открылся 16 июня 2015 года и за небольшой период работы стал популярным местом отдыха. На сегодняшний день для посещения открыты филиал парка - "Центральный музей бронетанкового вооружения и техники", исторический комплекс "Партизанская деревня" и Конгрессно-выставочный центр, где на демонстрационных площадках под открытым небом представлены образцы авиационной, бронетанковой, сухопутной и морской техники. Ежедневно объекты парка "Патриот" посещают сотни жителей Москвы и Подмосковья. При проведении крупных мероприятий число гостей достигает десятков тысяч, в том числе и из других субъектов Федерации, а также иностранных государств. А военно-технический форум "Армия-2015", проходивший на территории парка, принял более 260 тысяч человек.

MediaInfo

GeneralComplete name                            : 01. Русская стройка. БАМ. Вторая жизнь.mkvFormat                                   : MatroskaFormat version                           : Version 2File size                                : 2.63 GiBDuration                                 : 50mn 12sOverall bit rate                         : 7 496 KbpsEncoded date                             : UTC 2016-09-03 09:52:16Writing application                      : mkvmerge v7.7.0 ('Six Voices') 32bit built on Feb 28 2015 23:23:00Writing library                          : libebml v1.3.1 + libmatroska v1.4.2
VideoID : 1Format : AVCFormat/Info : Advanced Video CodecFormat profile : High@L4.0Format settings, CABAC : YesFormat settings, ReFrames : 4 framesCodec ID : V_MPEG4/ISO/AVCDuration : 50mn 12sBit rate : 7 155 KbpsWidth : 1 920 pixelsHeight : 1 080 pixelsDisplay aspect ratio : 16:9Frame rate mode : ConstantFrame rate : 25.000 fpsColor space : YUVChroma subsampling : 4:2:0Bit depth : 8 bitsScan type : MBAFFBits/(Pixel*Frame) : 0.138Stream size : 2.51 GiB (95%)Default : YesForced : No
AudioID : 2Format : MPEG AudioFormat version : Version 1Format profile : Layer 2Mode : Joint stereoMode extension : Intensity Stereo + MS StereoCodec ID : A_MPEG/L2Codec ID/Hint : MP2Duration : 50mn 12sBit rate mode : ConstantBit rate : 192 KbpsChannel(s) : 2 channelsSampling rate : 48.0 KHzCompression mode : LossyStream size : 69.0 MiB (3%)Language : RussianDefault : YesForced : No

Скриншоты

[Profile]  [PM] 
Display posts:    
Reply to topic

Current time is: 15-Dec 13:26

All times are UTC + 2



You cannot post new topics in this forum
You cannot reply to topics in this forum
You cannot edit your posts in this forum
You cannot delete your posts in this forum
You cannot vote in polls in this forum
You cannot attach files in this forum
You cannot download files in this forum