Поющее оружие. Ансамбль Александрова (Алексей Китайцев) [2008, историко-культурный, HDTV 1080i]

Reply to topic
 
Author
Message

Atila ®

Gender: Unknown

Longevity: 7 years 6 months

Posts: 2513

Reputation: 0 [+] [-]

Atila · Post 02-Feb-2017 03:30

[Quote] 

Поющее оружие. Ансамбль Александрова

Год выпуска: 2008
Страна: Россия
Жанр: историко-культурный
Продолжительность: 00:44:21
Перевод: Не требуется
Русские субтитры: нет
Режиссер: Алексей Китайцев
Описание: 1945 год. Ялта. Ливадийский дворец. После завершения знаменитой конференции главы правительств СССР, США и Великобритании, сидя в первом ряду на концерте советских артистов, без устали аплодируют военному ансамблю. Высокие гости сражены мощным многоголосием, тончайшим лиризмом, мастерским исполнением песен. Некоторые из них − *Полюшко-поле*, *Священная война* − повторяются на бис не один раз. Эти песни станут визитной карточкой Краснознаменного ансамбля и десятилетиями будут звучать на главных концертных площадках нашей страны, Европы и Америки. К ним прибавятся и станут популярными во всем мире *Калинка*, *Соловьи*, *Катюша*, *Степь да степь кругом* и многие другие. С историей ансамбля связана и история записи гимна СССР. Репертуар этого коллектива огромен, гастрольные пути бесконечны, слава не знает границ. За всем этим стоит не только талант, но и колоссальный труд артистов, не только аплодисменты, известность, почет, но и полные драматизма эпизоды из жизни ансамбля. Концерты дважды Краснознаменного ансамбля песни и пляски часто называют *дипломатической миссией*, его репертуар − *учебником истории* страны. Но самое интересное определение дал премьер-министр Великобритании Уинстон Черчилль в Ялте 1945 года, назвав ансамбль *поющим оружием*, которое вполне можно было бы использовать вместо второго фронта…
Тип релиза: HDTV 1080i
Контейнер: TS
Видео: AVC, 1920x1080 (16:9), 25.000 fps, 9 443 Kbps (0.182 bit/pixel)
Аудио: MP2, 48.0 KHz, 2 ch, 224 Kbps, CBR (std)

MediaInfo

GeneralID                                       : 16 (0x10)Complete name                            : G:\Поющее оружие. Ансамбль Александрова.tsFormat                                   : MPEG-TSFile size                                : 3.15 GiBDuration                                 : 44mn 23sOverall bit rate mode                    : VariableOverall bit rate                         : 10.2 Mbps
VideoID : 1901 (0x76D)Menu ID : 901 (0x385)Format : AVCFormat/Info : Advanced Video CodecFormat profile : High@L4.0Format settings, CABAC : YesFormat settings, ReFrames : 3 framesCodec ID : 27Duration : 44mn 22sBit rate : 9 443 KbpsWidth : 1 920 pixelsHeight : 1 080 pixelsDisplay aspect ratio : 16:9Frame rate : 25.000 fpsStandard : PALColor space : YUVChroma subsampling : 4:2:0Bit depth : 8 bitsScan type : InterlacedScan order : Top Field FirstBits/(Pixel*Frame) : 0.182Stream size : 2.93 GiB (93%)Color primaries : BT.709Transfer characteristics : BT.709Matrix coefficients : BT.709
AudioID : 2901 (0xB55)Menu ID : 901 (0x385)Format : MPEG AudioFormat version : Version 1Format profile : Layer 2Codec ID : 4Duration : 44mn 22sBit rate mode : ConstantBit rate : 224 KbpsChannel(s) : 2 channelsSampling rate : 48.0 KHzCompression mode : LossyDelay relative to video : 9msStream size : 71.1 MiB (2%)Language : stdLanguage, more info : Clean effects

Скриншоты




[Profile]  [PM] 
Display posts:    
Reply to topic

Current time is: 16-Dec 10:43

All times are UTC + 2



You cannot post new topics in this forum
You cannot reply to topics in this forum
You cannot edit your posts in this forum
You cannot delete your posts in this forum
You cannot vote in polls in this forum
You cannot attach files in this forum
You cannot download files in this forum