Хатико: Самый верный друг / Hachi: A Dog\'s Tale (Лассе Халльстрём / Lasse Hallström) [2009, США, Великобритания, драма, семейный, HDRip] Dub

Reply to topic
 
Author
Message

Advocat ®

Gender: Unknown

Longevity: 10 years

Posts: 2897

Reputation: 0 [+] [-]

Advocat · Post 02-Feb-2017 15:40

[Quote] 

Хатико: Самый верный друг / Hachi: A Dog's Tale- Страна: США, Великобритания
Жанр: драма, семейный
Год выпуска: 2009
Продолжительность: 01:33:14
Перевод: Профессиональный (дублированный)
Cубтитры: нет-Режиссер: Лассе Халльстрём / Lasse Hallström-В ролях: Ричард Гир (Parker Wilson), Джоан Аллен (Cate Wilson), Кэри-Хироюки Тагава (Ken), Сара Ремер (Andy), Джейсон Александер (Carl), Эрик Авари (Jasjeet), Давиния МакФэдден (Mary Anne), Робби Саблетт (Michael), Кевин ДеКосте (Ronnie - 11 years), Роб Деньян (Teddy Barnes), Тора Халлстрем (Heather), Донна Сорбелло (Myra)-Описание: В основе сюжета — реальная история, случившаяся в Японии и потрясшая весь мир. Однажды, возвращаясь с работы, профессор колледжа нашел на вокзале симпатичного щенка породы акита-ину. Профессор и Хатико стали верными друзьями. Каждый день пес провожал и встречал Профессора на вокзале. И даже потеря хозяина не остановила пса в его надежде, что друг вернется.-Доп. информация: Автор рипа Scarabey.-Сэмпл: http://multi-up.com/1138236-Качество видео: HDRip
Формат видео: AVI
Видео: 656x352 (1.86:1), 23.976 fps, XviD build 50 ~980 kbps avg, 0.18 bit/pixel
Аудио: 48 kHz, MPEG Layer 3, 2 ch, ~128.00 kbps avg

MediaInfo

Общее
Полное имя : D:\Раздачи\Hatiko_Samyi_vernyi_drug_2009_HDRip.avi
Формат : AVI
Формат/Информация : Audio Video Interleave
Размер файла : 746 Мбайт
Продолжительность : 1 ч. 33 м.
Общий поток : 1118 Кбит/сек
Программа кодирования : VirtualDubMod 1.5.10.2 (build 2540/release)
Библиотека кодирования : VirtualDubMod build 2540/release
Видео
Идентификатор : 0
Формат : MPEG-4 Visual
Профиль формата : Advanced Simple@L5
Параметр BVOP формата : 1
Параметр QPel формата : Нет
Параметр GMC формата : Без точки перехода
Параметр матрицы формата : Выборочная
Идентификатор кодека : XVID
Идентификатор кодека/Подсказка : XviD
Продолжительность : 1 ч. 33 м.
Битрейт : 981 Кбит/сек
Ширина : 656 пикселей
Высота : 352 пикселя
Соотношение сторон : 1,85:1
Частота кадров : 23,976 (23976/1000) кадра/сек
Цветовое пространство : YUV
Субдискретизация насыщенности : 4:2:0
Битовая глубина : 8 бит
Тип развёртки : Прогрессивная
Метод сжатия : С потерями
Бит/(Пиксели*Кадры) : 0.177
Размер потока : 654 Мбайт (88%)
Библиотека кодирования : XviD 1.2.1 (UTC 2008-12-04)
Аудио
Идентификатор : 1
Формат : MPEG Audio
Версия формата : Version 1
Профиль формата : Layer 3
Идентификатор кодека : 55
Идентификатор кодека/Подсказка : MP3
Продолжительность : 1 ч. 33 м.
Вид битрейта : Постоянный
Битрейт : 128 Кбит/сек
Каналы : 2 канала
Частота : 48,0 КГц
Метод сжатия : С потерями
Размер потока : 85,4 Мбайт (11%)
Выравнивание : Соединение по промежуткам
Продолжительность промежутка : 42 мс. (1,00 видеокадр)
Время предзагрузки промежутка : 504 мс.
Библиотека кодирования : LAME3.97
Настройки программы : -m s -V 4 -q 2 -lowpass 17 -b 128

Скриншот c названием фильма

Скриншоты

[Profile]  [PM] 
Display posts:    
Reply to topic

Current time is: 16-Dec 10:42

All times are UTC + 2



You cannot post new topics in this forum
You cannot reply to topics in this forum
You cannot edit your posts in this forum
You cannot delete your posts in this forum
You cannot vote in polls in this forum
You cannot attach files in this forum
You cannot download files in this forum