Новая эра Z / The Girl with All the Gifts (Колм МакКарти / Colm McCarthy) [2016, США, Великобритания, ужасы, триллер, драма, BDRip-AVC] Dub + Original + Sub (eng)

Reply to topic
 
Author
Message

Satyr ®

Gender: Unknown

Longevity: 10 years

Posts: 14656

Reputation: 54 [+] [-]

Satyr · Post 02-Feb-2017 19:45

[Quote] 

Новая эра Z / The Girl with All the Gifts«Умные и опасные: спасение или приговор»- Страна: США, Великобритания
Жанр: ужасы, триллер, драма
Год выпуска: 2016
Продолжительность: 01:50:55
Перевод: Профессиональный (дублированный) (iTunes)
Оригинальная аудиодорожка: английский
Субтитры: английские (полные, SDH)
Навигация по главам: есть
Режиссер: Колм МакКарти / Colm McCarthy
В ролях: Джемма Артертон (Helen Justineau), Гленн Клоуз (Dr. Caroline Caldwell), Пэдди Консидайн (Sgt. Eddie Parks), Доминик Типпер (Devani), Анамария Маринка (Dr. Selkirk), Сенниа Нануа (Melanie), Лобна Фьютерс (Hungry), Энтони Уэльс (Dillon), Дэниэл Иган (Soldier), Фисайо Акинаде (Kieran Gallagher), Росс Грин (Hungries), Стэйси Линн Кроу (Hungry)
Описание: Война миров не закончилась. Планету поразил страшный вирус. На людей стали нападать инфицированные особи, поставив человечество на грань исчезновения. Единственная надежда - второе поколение зараженных, опасных, но обладающих феноменальным, более высоким, чем у людей, интеллектом. Они - ключ к созданию спасительной вакцины. Поэтому их держат в специальном бункере, оберегая от контактов с внешним миром. Но однажды ситуация выходит из-под контроля.- -Качество: BDRip-AVC (исходник - BDRemux|The.Girl.with.All.the.Gifts.2016.1080p.BluRay.REMUX.AVC.DTS-HD.MA.5.1-FGT)
Формат видео: MKV
Видео: x264, 1136x566 (2.007) 23,976 fps, ~2623 kbps, 0.170 bit/pixel
Аудио 1: 48 kHz, AC3 Dolby Digital, 3/2 (L,C,R,l,r) + LFE ch, ~384 kbps [русский]
Аудио 2: 48 kHz, AC3 Dolby Digital, 3/2 (L,C,R,l,r) + LFE ch, ~448 kbps [английский]
Формат субтитров: softsub (SRT)-

MediaInfo | x264 log

Format : Matroska
Format version : Version 4 / Version 2
File size : 2.73 GiB
Duration : 1 h 50 min
Overall bit rate : 3 526 kb/s
Movie name : Новая эра Z / The Girl with All the Gifts (2016) :: AFM ::
Encoded date : UTC 2017-02-02 08:33:52
Writing application : mkvmerge v8.3.0 ('Over the Horizon') 32bit
Writing library : libebml v1.3.1 + libmatroska v1.4.2
Video
ID : 1
Format : AVC
Format/Info : Advanced Video Codec
Format profile : High@L4.1
Format settings, CABAC : Yes
Format settings, ReFrames : 11 frames
Codec ID : V_MPEG4/ISO/AVC
Duration : 1 h 50 min
Bit rate : 2 624 kb/s
Width : 1 136 pixels
Height : 566 pixels
Display aspect ratio : 2.007
Frame rate mode : Constant
Frame rate : 23.976 (24000/1001) FPS
Color space : YUV
Chroma subsampling : 4:2:0
Bit depth : 8 bits
Scan type : Progressive
Bits/(Pixel*Frame) : 0.170
Stream size : 2.03 GiB (74%)
Title : BDRip by AFM
Writing library : x264 core 148 r2762+56 6284cf3 t_mod_Custom [8-bit@all X86_64]
Encoding settings : cabac=1 / ref=11 / deblock=1:-3:-2 / analyse=0x3:0x113 / me=umh / subme=10 / psy=1 / fade_compensate=0.00 / psy_rd=1.00:0.00 / mixed_ref=1 / me_range=32 / chroma_me=1 / trellis=2 / 8x8dct=1 / cqm=0 / deadzone=21,11 / fast_pskip=0 / chroma_qp_offset=-2 / threads=6 / lookahead_threads=1 / sliced_threads=0 / nr=0 / decimate=1 / interlaced=0 / bluray_compat=0 / constrained_intra=0 / fgo=0 / bframes=12 / b_pyramid=2 / b_adapt=2 / b_bias=0 / direct=1 / weightb=1 / open_gop=0 / weightp=2 / keyint=240 / keyint_min=23 / scenecut=40 / intra_refresh=0 / rc_lookahead=60 / rc=crf / mbtree=0 / crf=18.2000 / qcomp=0.65 / qpmin=0:0:0 / qpmax=69:69:69 / qpstep=4 / vbv_maxrate=50000 / vbv_bufsize=62500 / crf_max=0.0 / nal_hrd=none / filler=0 / ip_ratio=1.35 / pb_ratio=1.30 / aq=3:0.80 / aq-sensitivity=10.00 / aq-factor=1.00:1.00:1.00 / aq2=0 / aq3=1:[0.30:0.30]:[0.30:0.30]:[0.30:0.30]:[0.30:0.30] / aq3-sensitivity=10.00 / aq3-factor=[1.00:1.00]:[1.00:1.00]:[1.00:1.00] / aq3-boundary=192:64:24 / zones=154800,159571,q=27
Language : English
Default : Yes
Forced : No
Audio #1
ID : 2
Format : AC-3
Format/Info : Audio Coding 3
Mode extension : CM (complete main)
Format settings, Endianness : Big
Codec ID : A_AC3
Duration : 1 h 50 min
Bit rate mode : Constant
Bit rate : 384 kb/s
Channel(s) : 6 channels
Channel positions : Front: L C R, Side: L R, LFE
Sampling rate : 48.0 kHz
Frame rate : 31.250 FPS (1536 spf)
Compression mode : Lossy
Stream size : 305 MiB (11%)
Title : Dub, AC3 5.1 ~384 kbps
Language : Russian
Default : Yes
Forced : No
Audio #2
ID : 3
Format : AC-3
Format/Info : Audio Coding 3
Mode extension : CM (complete main)
Format settings, Endianness : Big
Codec ID : A_AC3
Duration : 1 h 50 min
Bit rate mode : Constant
Bit rate : 448 kb/s
Channel(s) : 6 channels
Channel positions : Front: L C R, Side: L R, LFE
Sampling rate : 48.0 kHz
Frame rate : 31.250 FPS (1536 spf)
Compression mode : Lossy
Stream size : 355 MiB (13%)
Title : Original, AC3 5.1 ~448 kbps
Language : English
Default : No
Forced : No
Text #1
ID : 4
Format : UTF-8
Codec ID : S_TEXT/UTF8
Codec ID/Info : UTF-8 Plain Text
Language : English
Default : No
Forced : No
Text #2
ID : 5
Format : UTF-8
Codec ID : S_TEXT/UTF8
Codec ID/Info : UTF-8 Plain Text
Title : SDH
Language : English
Default : No
Forced : No
Menu
00:00:00.000 : en:Chapter 01
00:09:22.312 : en:Chapter 02
00:17:59.537 : en:Chapter 03
00:31:09.826 : en:Chapter 04
00:41:11.636 : en:Chapter 05
00:48:34.453 : en:Chapter 06
00:58:38.807 : en:Chapter 07
01:07:45.561 : en:Chapter 08
01:18:03.137 : en:Chapter 09
01:25:42.679 : en:Chapter 10
01:36:59.772 : en:Chapter 11
01:45:52.930 : en:Chapter 12

x264

x264 [info]: frame I:1146 Avg QP:15.12 size: 74585
x264 [info]: frame P:30905 Avg QP:16.56 size: 32204
x264 [info]: frame B:127520 Avg QP:18.73 size: 9087
x264 [info]: consecutive B-frames: 1.7% 1.8% 4.6% 12.4% 16.3% 41.0% 10.9% 6.1% 1.7% 0.9% 1.0% 0.8% 0.9%
x264 [info]: mb I I16..4: 6.9% 78.4% 14.7%
x264 [info]: mb P I16..4: 0.8% 11.2% 1.4% P16..4: 35.8% 30.3% 15.7% 0.0% 0.0% skip: 4.9%
x264 [info]: mb B I16..4: 0.0% 0.7% 0.1% B16..8: 42.6% 11.5% 3.2% direct: 4.3% skip:37.6% L0:44.2% L1:46.6% BI: 9.2%
x264 [info]: 8x8 transform intra:82.7% inter:62.0%
x264 [info]: coded y,uvDC,uvAC intra: 89.5% 89.8% 74.2% inter: 22.3% 18.8% 3.5%
x264 [info]: i16 v,h,dc,p: 16% 12% 8% 64%
x264 [info]: i8 v,h,dc,ddl,ddr,vr,hd,vl,hu: 14% 8% 8% 9% 13% 13% 12% 11% 12%
x264 [info]: i4 v,h,dc,ddl,ddr,vr,hd,vl,hu: 16% 6% 3% 11% 15% 14% 13% 11% 12%
x264 [info]: i8c dc,h,v,p: 45% 22% 18% 15%
x264 [info]: Weighted P-Frames: Y:2.5% UV:0.5%
x264 [info]: ref P L0: 47.6% 8.9% 16.7% 6.9% 5.5% 3.8% 3.5% 1.9% 2.1% 1.5% 1.5% 0.1% 0.0%
x264 [info]: ref B L0: 72.9% 11.3% 5.9% 3.0% 2.4% 1.7% 1.3% 0.8% 0.5% 0.2%
x264 [info]: ref B L1: 94.1% 5.9%
x264 [info]: kb/s:2692.00

Скриншоты

с названием

[Profile]  [PM] 
Display posts:    
Reply to topic

Current time is: 16-Dec 08:58

All times are UTC + 2



You cannot post new topics in this forum
You cannot reply to topics in this forum
You cannot edit your posts in this forum
You cannot delete your posts in this forum
You cannot vote in polls in this forum
You cannot attach files in this forum
You cannot download files in this forum