Джек Ричер 2: Никогда не возвращайся / Jack Reacher: Never Go Back (Эдвард Цвик / Edward Zwick) [2016, Китай, США, боевик, триллер, криминал, детектив, приключения, BDRip 1080p] Dub + Sub Rus, Eng + Original Eng

Reply to topic
 
Author
Message

Faust ®

Gender: Unknown

Longevity: 8 years 4 months

Posts: 14005

Reputation: 0 [+] [-]

Faust · Post 02-Feb-2017 23:50

[Quote] 

Джек Ричер 2: Никогда не возвращайся / Jack Reacher: Never Go Back
Страна: Китай, США
Жанр: боевик, триллер, криминал, детектив, приключения
Год выпуска: 2016
Продолжительность: 01:58:08
Перевод: Профессиональный (дублированный)
Cубтитры: Russian (Forced, iTunes), Russian (iTunes), Ukrainian (Blu-ray CEE), English, English (SDH)
Оригинальная аудиодорожка: английский-Режиссер: Эдвард Цвик / Edward Zwick-В ролях: Том Круз, Коби Смолдерс, Элдис Ходж, Даника Ярош, Патрик Хьюсингер, Холт МакКэллани, Джудд Лорманд, Кристофер Берри, Хантер Бурк, Джейсон Дуглас-Описание: Экс-военный Джек Ричер приезжает в Вашингтон, чтобы впервые встретиться с майором Сьюзен Тернер, которая возглавила его бывшее подразделение и не раз выручала его в непростых ситуациях. По странному стечению обстоятельств буквально накануне его визита майора арестовывают по обвинению в измене… Ричеру, уверенному в невиновности Сьюзен, предстоит освободить ее и раскрыть заговор, ниточки которого тянутся на самый верх. Стремясь докопаться до правды, он также делает поразительное открытие, способное раз и навсегда изменить его жизнь…-Релиз:
-Качество видео: BDRip | Рип от FTO!
Формат видео: MKV
Видео: 1920x804 at 23.976 fps, x264@L4.1, ~12.0 Mbps avg
Аудио 1: Russian: 48 kHz, AC3, 3/2 (L,C,R,l,r) + LFE ch, ~640.00 kbps avg |Дубляж, Blu-ray CEE|
Аудио 2: English: 48 kHz, AC3, 3/2 (L,C,R,l,r) + LFE ch, ~640.00 kbps avg-Сэмпл-
Сохранены оригинальные главы как на Blu-ray.

MI

Format                      : Matroska
Format version              : Version 2
File size                   : 11.2 GiB
Duration                    : 1 h 58 min
Overall bit rate            : 13.5 Mb/s
Movie name                  : Jack Reacher: Never Go Back (2016) - Release for HDCLUB
Encoded date                : UTC 2017-01-25 22:08:41
Writing application         : mkvmerge v3.4.0 ('Rapunzel') built on May 15 2010 09:38:20
Writing library             : libebml v0.8.0 + libmatroska v0.9.0
Video
ID                          : 1
Format                      : AVC
Format/Info                 : Advanced Video Codec
Format profile              : High@L4.1
Format settings, CABAC      : Yes
Format settings, ReFrames   : 5 frames
Codec ID                    : V_MPEG4/ISO/AVC
Duration                    : 1 h 58 min
Bit rate                    : 12.0 Mb/s
Width                       : 1 920 pixels
Height                      : 804 pixels
Display aspect ratio        : 2.40:1
Frame rate mode             : Constant
Frame rate                  : 23.976 (24000/1001) FPS
Color space                 : YUV
Chroma subsampling          : 4:2:0
Bit depth                   : 8 bits
Scan type                   : Progressive
Bits/(Pixel*Frame)          : 0.324
Stream size                 : 9.89 GiB (89%)
Title                       : Jack Reacher: Never Go Back (2016) - Release for HDCLUB
Writing library             : x264 core 148 r2744 b97ae06
Encoding settings           : cabac=1 / ref=5 / deblock=1:-3:-3 / analyse=0x3:0x133 / me=tesa / subme=11 / psy=1 / psy_rd=1.05:0.00 / mixed_ref=1 / me_range=32 / chroma_me=1 / trellis=2 / 8x8dct=1 / cqm=0 / deadzone=21,11 / fast_pskip=0 / chroma_qp_offset=-2 / threads=12 / lookahead_threads=3 / sliced_threads=0 / nr=0 / decimate=1 / interlaced=0 / bluray_compat=0 / constrained_intra=0 / bframes=11 / b_pyramid=2 / b_adapt=2 / b_bias=0 / direct=3 / weightb=1 / open_gop=0 / weightp=2 / keyint=250 / keyint_min=23 / scenecut=40 / intra_refresh=0 / rc=crf / mbtree=0 / crf=18.0 / qcomp=0.70 / qpmin=0 / qpmax=69 / qpstep=4 / ip_ratio=1.40 / pb_ratio=1.30 / aq=1:0.70
Language                    : English
Default                     : Yes
Forced                      : No
Color range                 : Limited
Matrix coefficients         : BT.709
Audio #1
ID                          : 2
Format                      : AC-3
Format/Info                 : Audio Coding 3
Mode extension              : CM (complete main)
Format settings, Endianness : Big
Codec ID                    : A_AC3
Duration                    : 1 h 58 min
Bit rate mode               : Constant
Bit rate                    : 640 kb/s
Channel(s)                  : 6 channels
Channel positions           : Front: L C R, Side: L R, LFE
Sampling rate               : 48.0 kHz
Frame rate                  : 31.250 FPS (1536 spf)
Bit depth                   : 16 bits
Compression mode            : Lossy
Stream size                 : 541 MiB (5%)
Title                       : AC3 5.1 @ 640 kbps - DUB, Blu-ray CEE
Language                    : Russian
Default                     : Yes
Forced                      : No
Audio #2
ID                          : 3
Format                      : AC-3
Format/Info                 : Audio Coding 3
Mode extension              : CM (complete main)
Format settings, Endianness : Big
Codec ID                    : A_AC3
Duration                    : 1 h 58 min
Bit rate mode               : Constant
Bit rate                    : 640 kb/s
Channel(s)                  : 6 channels
Channel positions           : Front: L C R, Side: L R, LFE
Sampling rate               : 48.0 kHz
Frame rate                  : 31.250 FPS (1536 spf)
Bit depth                   : 16 bits
Compression mode            : Lossy
Stream size                 : 541 MiB (5%)
Title                       : AC3 5.1 @ 640 kbps
Language                    : English
Default                     : No
Forced                      : No
Text #1
ID                          : 4
Format                      : UTF-8
Codec ID                    : S_TEXT/UTF8
Codec ID/Info               : UTF-8 Plain Text
Title                       : Forced, iTunes
Language                    : Russian
Default                     : Yes
Forced                      : No
Text #2
ID                          : 5
Format                      : UTF-8
Codec ID                    : S_TEXT/UTF8
Codec ID/Info               : UTF-8 Plain Text
Title                       : iTunes
Language                    : Russian
Default                     : No
Forced                      : No
Text #3
ID                          : 6
Format                      : UTF-8
Codec ID                    : S_TEXT/UTF8
Codec ID/Info               : UTF-8 Plain Text
Title                       : Blu-ray CEE
Language                    : Ukrainian
Default                     : No
Forced                      : No
Text #4
ID                          : 7
Format                      : UTF-8
Codec ID                    : S_TEXT/UTF8
Codec ID/Info               : UTF-8 Plain Text
Language                    : English
Default                     : No
Forced                      : No
Text #5
ID                          : 8
Format                      : UTF-8
Codec ID                    : S_TEXT/UTF8
Codec ID/Info               : UTF-8 Plain Text
Title                       : SDH
Language                    : English
Default                     : No
Forced                      : No
Menu
00:00:00.000                : en:00:00:00.000
00:07:00.629                : en:00:07:00.629
00:15:19.877                : en:00:15:19.877
00:20:33.858                : en:00:20:33.858
00:29:04.576                : en:00:29:04.576
00:34:35.740                : en:00:34:35.740
00:42:40.141                : en:00:42:40.141
00:49:28.007                : en:00:49:28.007
00:58:44.563                : en:00:58:44.563
01:03:10.161                : en:01:03:10.161
01:09:35.755                : en:01:09:35.755
01:15:05.334                : en:01:15:05.334
01:21:59.665                : en:01:21:59.665
01:27:07.222                : en:01:27:07.222
01:34:14.065                : en:01:34:14.065
01:46:44.857                : en:01:46:44.857
01:53:30.846                : en:01:53:30.846

Скриншоты

[Profile]  [PM] 
Display posts:    
Reply to topic

Current time is: 25-Jan 15:20

All times are UTC + 2



You cannot post new topics in this forum
You cannot reply to topics in this forum
You cannot edit your posts in this forum
You cannot delete your posts in this forum
You cannot vote in polls in this forum
You cannot attach files in this forum
You cannot download files in this forum