Стервятник / The Vulture (Лоуренс Хантингтон / Lawrence Huntington) [1966, Великобритания, ужасы, фантастика, детектив, DVD5(Custom)] VO + Original Eng

Reply to topic
 
Author
Message

Faust ®

Gender: Unknown

Longevity: 8 years 2 months

Posts: 13753

Reputation: 0 [+] [-]

Faust · Post 02-Feb-2017 23:50

[Quote] 

Стервятник / The Vulture
Страна: Великобритания
Жанр: ужасы, фантастика, детектив
Год выпуска: 1966
Продолжительность: 01:31:17
Перевод: Одноголосый закадровый
Cубтитры: нет
Оригинальная аудиодорожка: английский
Режиссер: Лоуренс Хантингтон / Lawrence Huntington
В ролях: Роберт Хаттон, Аким Тамирофф, Бродерик Кроуфорд, Дайан Клер, Филип Френд, Патрик Холт
Описание: Приехавший отдохнуть в небольшую деревушку учёный узнаёт об одной интересной местной легенде. Легенда гласит, что в этих местах некогда был заживо похоронен колдун вместе с его ручным коршуном, и согласно преданию колдун поклялся отомстить потомкам своих убийц. Вскоре в деревне начинается череда событий, поневоле заставляющих жителей пересмотреть взгляд на эту легенду и перестать считать её суеверием.
Меню: Статичное английское
Сэмпл: http://multi-up.com/1137050
Тип релиза: DVD5(Custom)
Контейнер: DVD-Video
Видео: NTSC 4:3 (720x480) VBR
Аудио: English (Dolby AC3, 2 ch) 192 Кбит/сек
Аудио 2: Russian (Dolby AC3, 2 ch) 224 Кбит/сек

MediaInfo

Информация о проигрывателе:
Код зоны проигрывателя: Не указано
Код зоны диска: 1, 2, 3, 4, 5, 6, All
Полное имя : D:\КИНО РУТР\ДЛЯ рутрекера\The Vulture\VIDEO_TS\VTS_01_1.VOB
Формат : MPEG-PS
Размер файла : 1024 Мбайт
Продолжительность : 21 м.
Режим общего битрейта : Переменный
Общий поток : 6569 Кбит/сек
Видео
Идентификатор : 224 (0xE0)
Формат : MPEG Video
Версия формата : Version 2
Профиль формата : Main@Main
Параметр BVOP формата : Да
Параметр матрицы формата : Выборочная
Параметр GOP формата : M=3, N=16
Продолжительность : 21 м.
Вид битрейта : Переменный
Битрейт : 6039 Кбит/сек
Ширина : 720 пикселей
Высота : 480 пикселей
Соотношение сторон : 4:3
Частота кадров : 29,970 кадров/сек
Стандарт вещания : NTSC
Цветовое пространство : YUV
Субдискретизация насыщенности : 4:2:0
Битовая глубина : 8 бит
Тип развёртки : Чересстрочная
Порядок развёртки : Верхнее поле первое
Метод сжатия : С потерями
Бит/(Пиксели*Кадры) : 0.583
Временной код первого кадра : 00:00:00:00
Оригинал временного кода : Group of pictures header
Размер потока : 939 Мбайт (92%)
Основные цвета : BT.601 NTSC
Характеристики трансфера : BT.601
Коэффициенты матрицы : BT.601
Аудио #1
Идентификатор : 189 (0xBD)-128 (0x80)
Формат : AC-3
Формат/Информация : Audio Coding 3
Расширение режима : CM (complete main)
Параметр Endianness формата : Big
Режим смешивания : DVD-Video
Продолжительность : 21 м.
Вид битрейта : Постоянный
Битрейт : 192 Кбит/сек
Каналы : 2 канала
Расположение каналов : Front: L R
Частота : 48,0 КГц
Битовая глубина : 16 бит
Метод сжатия : С потерями
Размер потока : 29,9 Мбайт (3%)
Аудио #2
Идентификатор : 189 (0xBD)-129 (0x81)
Формат : AC-3
Формат/Информация : Audio Coding 3
Расширение режима : CM (complete main)
Параметр Endianness формата : Big
Режим смешивания : DVD-Video
Продолжительность : 21 м.
Вид битрейта : Постоянный
Битрейт : 224 Кбит/сек
Каналы : 2 канала
Расположение каналов : Front: L R
Частота : 48,0 КГц
Битовая глубина : 16 бит
Метод сжатия : С потерями
Размер потока : 34,9 Мбайт (3%)

Скриншоты меню

Скриншоты

[Profile]  [PM] 
Display posts:    
Reply to topic

Current time is: 16-Dec 08:58

All times are UTC + 2



You cannot post new topics in this forum
You cannot reply to topics in this forum
You cannot edit your posts in this forum
You cannot delete your posts in this forum
You cannot vote in polls in this forum
You cannot attach files in this forum
You cannot download files in this forum