Голубой шлем / Der Blaue Helm (Урсула Шменгер / Ursula Schmenger) [1979, ГДР, семейный, DVD5 (Custom)] VO (Юрий Муравский) + Original Ger

Reply to topic
 
Author
Message

Faust ®

Gender: Unknown

Longevity: 8 years 2 months

Posts: 13748

Reputation: 0 [+] [-]

Faust · Post 02-Feb-2017 23:50

[Quote] 

Голубой шлем / Der Blaue Helm
Страна: ГДР
Студия: (Deutsche Film (DEFA)
Жанр: семейный
Год выпуска: 1979
Продолжительность: 01:08:27
Перевод: Одноголосый закадровый (Юрий Муравский)
Cубтитры: нет
Оригинальная аудиодорожка: немецкий
Режиссер: Урсула Шменгер / Ursula Schmenger
В ролях: Гельмут Домски, Гюнтер Юнгханс, Иоаким Жоке , Отти Планерер , Юрген Тротт, Хельга Гёринг, Маня Гёринг , Гюнтер Поленсен , Карл Штурм
Описание: Описание:
Мальчику Мирко очень понравилась голубая каска бурильщика скважин. Он берёт её без разрешения, но скоро начинает понимать что поступил нехорошо и нечестно…
Доп. информация: Релиз:


сборка АРТВИДЕО
Меню: есть,анмированое,озвученное
Тип релиза: DVD5 (Custom)
Контейнер: DVD-Video
Видео: PAL 4:3 (720x576) VBR
Аудио: AC3, 2/0 (L,R) ch, 192 kbps, Delay 0 mSec(rus)
Аудио 2: AC3, 2/0 (L,R) ch, 192 kbps, Delay 0 mSec(Deu)

СОФТ

PGCDemux (извлечение).
BeSweet, Sony Vegas 9 (звук).
MuxMan (сборка). DvdReMakePro (финал).

DVDInfo

Title: Der Blaue Helm (1979) ГДР DVD5
Size: 3.30 Gb ( 3 456 518,00 KBytes ) - DVD-5
Enabled regions: 1, 2, 3, 4, 5, 6, 7, 8
VTS_01 :
Play Length: 01:08:27
Video: PAL 4:3 (720x576) VBR
Audio:
Russian, AC3, 2/0 (L,R) ch, 192 kbps, Delay 0 mSec
Deutsch, AC3, 2/0 (L,R) ch, 192 kbps, Delay 0 mSec
VTS_02 :
Play Length: 00:00:15
Video: PAL 4:3 (720x576) VBR
VTS_03 :
Play Length: 00:01:32
Video: PAL 4:3 (720x576) VBR
Audio:
Not specified (Dolby AC3, 2 ch)
VTS_04 :
Play Length: 00:01:30
Video: PAL 4:3 (720x576) VBR
Audio:
Not specified (Dolby AC3, 2 ch)

MediaInfo

Общее
Полное имя : F:\МОИ ВИДЕО ЗАПИСИ DViX, AVi, MPG4\ВИДЕО В ФОРМАТЕ VOB\Голубой шлем Der Blaue Helm (1979) ГДР DVD5\Der Blaue Helm (1979) ГДР DVD5\VIDEO_TS\VTS_01_2.VOB
Формат : MPEG-PS
Размер файла : 1024 Мбайт
Продолжительность : 21 м.
Режим общего битрейта : Переменный
Общий поток : 6726 Кбит/сек
Видео
Идентификатор : 224 (0xE0)
Формат : MPEG Video
Версия формата : Version 2
Профиль формата : Main@Main
Параметр BVOP формата : Да
Параметр матрицы формата : По умолчанию
Параметр GOP формата : M=3, N=15
Продолжительность : 21 м.
Вид битрейта : Переменный
Битрейт : 6208 Кбит/сек
Максимальный битрейт : 8000 Кбит/сек
Ширина : 720 пикселей
Высота : 576 пикселей
Соотношение сторон : 4:3
Частота кадров : 25,000 кадров/сек
Стандарт вещания : PAL
Цветовое пространство : YUV
Субдискретизация насыщенности : 4:2:0
Битовая глубина : 8 бит
Тип развёртки : Прогрессивная
Метод сжатия : С потерями
Бит/(Пиксели*Кадры) : 0.599
Временной код первого кадра : 10:22:52:05
Оригинал временного кода : Group of pictures header
GOP, открыто/закрыто : Открыто
Размер потока : 945 Мбайт (92%)
Аудио #1
Идентификатор : 189 (0xBD)-128 (0x80)
Формат : AC-3
Формат/Информация : Audio Coding 3
Расширение режима : CM (complete main)
Параметр Endianness формата : Big
Режим смешивания : DVD-Video
Продолжительность : 21 м.
Вид битрейта : Постоянный
Битрейт : 192 Кбит/сек
Каналы : 2 канала
Расположение каналов : Front: L R
Частота : 48,0 КГц
Частота кадров : 31,250 кадров/сек (1536 spf)
Метод сжатия : С потерями
Задержка видео : -280 мс.
Размер потока : 29,2 Мбайт (3%)
Аудио #2
Идентификатор : 189 (0xBD)-129 (0x81)
Формат : AC-3
Формат/Информация : Audio Coding 3
Расширение режима : CM (complete main)
Параметр Endianness формата : Big
Режим смешивания : DVD-Video
Продолжительность : 21 м.
Вид битрейта : Постоянный
Битрейт : 192 Кбит/сек
Каналы : 2 канала
Расположение каналов : Front: L R
Частота : 48,0 КГц
Частота кадров : 31,250 кадров/сек (1536 spf)
Метод сжатия : С потерями
Задержка видео : -280 мс.
Размер потока : 29,2 Мбайт (3%)

Скриншоты меню

Скриншоты

ВНИМАНИЕ ! Раздаю до пяти сидов и ухожу с раздачи .
[Profile]  [PM] 
Display posts:    
Reply to topic

Current time is: 15-Dec 11:47

All times are UTC + 2



You cannot post new topics in this forum
You cannot reply to topics in this forum
You cannot edit your posts in this forum
You cannot delete your posts in this forum
You cannot vote in polls in this forum
You cannot attach files in this forum
You cannot download files in this forum