Пеле: Рождение легенды / Pelé: Birth of a Legend (Джефф Цимбалист, Майкл Цимбалист / Jeff Zimbalist, Michael Zimbalist) [2016, США, драма, биография, спорт, BDRip-AVC] Dub + Original Eng + Sub Eng

Reply to topic
 
Author
Message

Satyr ®

Online

Gender: Unknown

Longevity: 10 years

Posts: 14643

Reputation: 54 [+] [-]

Satyr · Post 03-Feb-2017 12:05

[Quote] 

Пеле: Рождение легенды / Pelé: Birth of a Legend- Страна: США
Жанр: драма, биография, спорт
Год выпуска: 2016
Продолжительность: 01:47:05
Перевод: Профессиональный (дублированный)
Cубтитры: английские
Оригинальная аудиодорожка: английский
Режиссер: Джефф Цимбалист, Майкл Цимбалист / Jeff Zimbalist, Michael Zimbalist
В ролях: Винсент Д`Онофрио, Родриго Санторо, Диего Бонета, Колм Мини, Сеу Жоржи, Андре Маттос, Свен Холмберг
Описание: Биографическая драма расскажет о закулисье спорта, в частности о жизни величайшего игрока в истории футбола — Пеле. Зрители станут свидетелями непростой жизни бразильской легенды спорта. Сколько преград тому удалось преодолеть на своем пути, чтобы добиться мировой популярности? Это сейчас он демонстрирует невероятные профессиональные достижения и вдобавок ко всему не забывает о благородных делах, но раньше все было по-другому. С ранних лет Пеле жаждал получить признание, неустанно шел к своей мечте, преодолевая препятствия, тем самым закаляя свой характер. Картина охватывает детство футболиста, вплоть до победы на первом этапе Кубка мира в Швеции, когда Пеле было семнадцать лет. Судьба не всегда была благосклонна к спортсмену, однако за каждой успешной личности стоит огромный труд, железная воля и твердая уверенность в собственных силах.
Сэмпл: http://sendfile.su/1304823

Качество видео: BDRip-AVC (Pele.Birth.Of.A.Legend.2016.D.BDREMUX.1080p.selezen)
Формат видео: MKV
Видео: x264, 1032x430 (2.40:1) 23,976 fps, ~2085 kbps, 0,196 bit/pixel
Аудио 1: 48 kHz, AC3 Dolby Digital, 3/2 (L,C,R,l,r) + LFE ch, ~384 kbps [русский, iTunes Russia]
Аудио 2: 48 kHz, AC3 Dolby Digital, 3/2 (L,C,R,l,r) + LFE ch, ~448 kbps [английский]
Формат субтитров: softsub (SRT)

MediaInfo

General
Unique ID : 214893330891666506552362088419657949463 (0xA1AAF33887D12A6C834D816398DEA117)
Format : Matroska
Format version : Version 4 / Version 2
File size : 2.18 GiB
Duration : 1h 47mn
Overall bit rate : 2 916 Kbps
Encoded date : UTC 2017-02-02 08:55:52
Writing application : mkvmerge v9.8.0 ('Kuglblids') 64bit
Writing library : libebml v1.3.4 + libmatroska v1.4.5
Video #1
ID : 1
Format : AVC
Format/Info : Advanced Video Codec
Format profile : High@L4.1
Format settings, CABAC : Yes
Format settings, ReFrames : 11 frames
Codec ID : V_MPEG4/ISO/AVC
Duration : 1h 47mn
Bit rate : 2 085 Kbps
Width : 1 032 pixels
Height : 430 pixels
Display aspect ratio : 2.40:1
Frame rate mode : Constant
Frame rate : 23.976 (24000/1001) fps
Color space : YUV
Chroma subsampling : 4:2:0
Bit depth : 8 bits
Scan type : Progressive
Bits/(Pixel*Frame) : 0.196
Stream size : 1.56 GiB (71%)
Writing library : x264 core 146 r2538 121396c
Encoding settings : cabac=1 / ref=11 / deblock=1:-3:-2 / analyse=0x3:0x113 / me=umh / subme=10 / psy=1 / psy_rd=1.00:0.00 / mixed_ref=1 / me_range=32 / chroma_me=1 / trellis=2 / 8x8dct=1 / cqm=0 / deadzone=21,11 / fast_pskip=1 / chroma_qp_offset=-2 / threads=6 / lookahead_threads=1 / sliced_threads=0 / nr=0 / decimate=1 / interlaced=0 / bluray_compat=0 / constrained_intra=0 / bframes=11 / b_pyramid=2 / b_adapt=2 / b_bias=0 / direct=1 / weightb=1 / open_gop=0 / weightp=2 / keyint=250 / keyint_min=23 / scenecut=40 / intra_refresh=0 / rc_lookahead=50 / rc=2pass / mbtree=1 / bitrate=2085 / ratetol=1.0 / qcomp=0.60 / qpmin=0 / qpmax=69 / qpstep=4 / cplxblur=20.0 / qblur=0.5 / ip_ratio=1.40 / aq=3:1.00
Language : English
Default : Yes
Forced : No
Audio #2
ID : 2
Format : AC-3
Format/Info : Audio Coding 3
Mode extension : CM (complete main)
Format settings, Endianness : Big
Codec ID : A_AC3
Duration : 1h 47mn
Bit rate mode : Constant
Bit rate : 384 Kbps
Channel(s) : 6 channels
Channel positions : Front: L C R, Side: L R, LFE
Sampling rate : 48.0 KHz
Frame rate : 31.250 fps (1536 spf)
Compression mode : Lossy
Stream size : 294 MiB (13%)
Title : DUB [iTunes]
Language : Russian
Default : Yes
Forced : No
Audio #3
ID : 3
Format : AC-3
Format/Info : Audio Coding 3
Mode extension : CM (complete main)
Format settings, Endianness : Big
Codec ID : A_AC3
Duration : 1h 47mn
Bit rate mode : Constant
Bit rate : 448 Kbps
Channel(s) : 6 channels
Channel positions : Front: L C R, Side: L R, LFE
Sampling rate : 48.0 KHz
Frame rate : 31.250 fps (1536 spf)
Compression mode : Lossy
Stream size : 343 MiB (15%)
Language : English
Default : No
Forced : No
Text #4
ID : 4
Format : UTF-8
Codec ID : S_TEXT/UTF8
Codec ID/Info : UTF-8 Plain Text
Duration : 1h 40mn
Bit rate : 65 bps
Count of elements : 1361
Stream size : 48.2 KiB (0%)
Title : Full
Language : English
Default : No
Forced : No

лог

raw [info]: 1032x430p 1:1 @ 24000/1001 fps (cfr)
x264 [info]: using SAR=1/1
x264 [info]: using cpu capabilities: MMX2 SSE2Fast SSSE3 SSE4.2 AVX XOP FMA4 FMA3 LZCNT BMI1
x264 [info]: profile High, level 4.1
x264 [info]: frame I:1343 Avg QP:14.66 size: 74946
x264 [info]: frame P:44418 Avg QP:19.08 size: 20613
x264 [info]: frame B:108303 Avg QP:22.22 size: 6060
x264 [info]: consecutive B-frames: 7.1% 6.5% 13.5% 31.4% 15.1% 17.3% 4.2% 2.0% 1.0% 0.8% 0.6% 0.7%
x264 [info]: mb I I16..4: 7.9% 64.3% 27.8%
x264 [info]: mb P I16..4: 1.6% 12.2% 2.2% P16..4: 37.5% 24.4% 12.8% 0.0% 0.0% skip: 9.3%
x264 [info]: mb B I16..4: 0.1% 1.1% 0.3% B16..8: 38.4% 10.8% 3.1% direct: 4.5% skip:41.7% L0:41.9% L1:45.7% BI:12.5%
x264 [info]: 8x8 transform intra:74.2% inter:67.7%
x264 [info]: coded y,uvDC,uvAC intra: 80.8% 77.0% 50.2% inter: 21.9% 16.2% 4.8%
x264 [info]: i16 v,h,dc,p: 21% 21% 5% 53%
x264 [info]: i8 v,h,dc,ddl,ddr,vr,hd,vl,hu: 11% 13% 5% 9% 13% 13% 13% 12% 12%
x264 [info]: i4 v,h,dc,ddl,ddr,vr,hd,vl,hu: 10% 11% 4% 9% 15% 14% 14% 11% 12%
x264 [info]: i8c dc,h,v,p: 38% 25% 19% 19%
x264 [info]: Weighted P-Frames: Y:2.9% UV:1.4%
x264 [info]: ref P L0: 53.4% 13.1% 13.2% 5.5% 3.7% 3.0% 2.8% 1.6% 1.2% 1.2% 1.1% 0.3% 0.0%
x264 [info]: ref B L0: 77.9% 9.7% 4.7% 2.4% 1.6% 1.2% 1.2% 0.7% 0.4% 0.2%
x264 [info]: ref B L1: 93.4% 6.6%
x264 [info]: kb/s:2082.27
x264 [total]: encoded 154064 frames, 9.99 fps, 2082.27 kb/s

Скриншоты


[Profile]  [PM] 
Display posts:    
Reply to topic

Current time is: 15-Dec 04:20

All times are UTC + 2



You cannot post new topics in this forum
You cannot reply to topics in this forum
You cannot edit your posts in this forum
You cannot delete your posts in this forum
You cannot vote in polls in this forum
You cannot attach files in this forum
You cannot download files in this forum