Сейчас самое время / Now Is Good (Ол Паркер / Ol Parker) [2012, Великобритания, мелодрама, BDRip-AVC] Dub + Original Eng + Sub (Rus, Eng)

Reply to topic
 
Author
Message

Satyr ®

Gender: Unknown

Longevity: 10 years

Posts: 15303

Reputation: 54 [+] [-]

Satyr · Post 03-Feb-2017 16:10

[Quote] 

Сейчас самое время / Now Is Good- Страна: Великобритания
Жанр: мелодрама
Год выпуска: 2012
Продолжительность: 01:42:55
Перевод: Профессиональный (дублированный)
Cубтитры: русские, английские
Оригинальная аудиодорожка: английский
Режиссер: Ол Паркер / Ol Parker
В ролях: Дакота Фаннинг, Джереми Ирвин, Пэдди Консидайн, Оливия Уильямс, Кая Скоделарио, Роуз Лесли, Сара Хэдлэнд, Джо Коул, Рэки Айола, Патрик Балади
Описание: Тессе семнадцать, и она хочет жить нормальной жизнью. Она мечтает о тех же вещах, что и все подростки. Но что делать, если времени осталось мало? Тесса принимает решение, прожить все, что отмерено, так, чтобы ни одна минута не пропала зря.
Девушка составляет список того, что обязательно нужно успеть: потерять невинность, попробовать наркотики, прыгнуть с парашютом, по-настоящему полюбить. Она шаг за шагом воплощает свои намерения. Но внезапно вспыхнувшее чувство к соседскому парню Адаму меняет все ее планы.
Сэмпл: http://sendfile.su/1304808

Качество видео: BDRip-AVC (Сейчас самое время 2012 Blu-ray Disc (Custom) 1080p [GER Transfer])
Формат видео: MKV
Видео: x264, 1148x488 (2.35:1) 23.976 fps, ~1960 kbps, 0,146 bit/pixel
Аудио 1: 48 kHz, AC3 Dolby Digital, 3/2 (L,C,R,l,r) + LFE ch, ~448 kbps [русский]
Аудио 2: 48 kHz, AC3 Dolby Digital, 3/2 (L,C,R,l,r) + LFE ch, ~448 kbps [английский]
Формат субтитров: softsub (SRT)

MediaInfo

General
Unique ID : 206401531980978374770491513890733334410 (0x9B477D35B8650612B1D4801E35DC9F8A)
Format : Matroska
Format version : Version 4 / Version 2
File size : 2.05 GiB
Duration : 1h 42mn
Overall bit rate : 2 854 Kbps
Encoded date : UTC 2017-02-02 08:54:04
Writing application : mkvmerge v9.8.0 ('Kuglblids') 64bit
Writing library : libebml v1.3.4 + libmatroska v1.4.5
Video #1
ID : 1
Format : AVC
Format/Info : Advanced Video Codec
Format profile : High@L4.1
Format settings, CABAC : Yes
Format settings, ReFrames : 11 frames
Codec ID : V_MPEG4/ISO/AVC
Duration : 1h 42mn
Bit rate : 1 960 Kbps
Width : 1 148 pixels
Height : 488 pixels
Display aspect ratio : 2.35:1
Frame rate mode : Constant
Frame rate : 23.976 (24000/1001) fps
Color space : YUV
Chroma subsampling : 4:2:0
Bit depth : 8 bits
Scan type : Progressive
Bits/(Pixel*Frame) : 0.146
Stream size : 1.41 GiB (69%)
Writing library : x264 core 146 r2538 121396c
Encoding settings : cabac=1 / ref=11 / deblock=1:-3:-2 / analyse=0x3:0x113 / me=umh / subme=10 / psy=1 / psy_rd=1.00:0.00 / mixed_ref=1 / me_range=32 / chroma_me=1 / trellis=2 / 8x8dct=1 / cqm=0 / deadzone=21,11 / fast_pskip=1 / chroma_qp_offset=-2 / threads=6 / lookahead_threads=1 / sliced_threads=0 / nr=0 / decimate=1 / interlaced=0 / bluray_compat=0 / constrained_intra=0 / bframes=13 / b_pyramid=2 / b_adapt=2 / b_bias=0 / direct=1 / weightb=1 / open_gop=0 / weightp=2 / keyint=250 / keyint_min=23 / scenecut=40 / intra_refresh=0 / rc_lookahead=50 / rc=2pass / mbtree=1 / bitrate=1960 / ratetol=1.0 / qcomp=0.60 / qpmin=0 / qpmax=69 / qpstep=4 / cplxblur=20.0 / qblur=0.5 / ip_ratio=1.40 / aq=3:1.00
Language : English
Default : Yes
Forced : No
Audio #2
ID : 2
Format : AC-3
Format/Info : Audio Coding 3
Mode extension : CM (complete main)
Format settings, Endianness : Big
Codec ID : A_AC3
Duration : 1h 42mn
Bit rate mode : Constant
Bit rate : 448 Kbps
Channel(s) : 6 channels
Channel positions : Front: L C R, Side: L R, LFE
Sampling rate : 48.0 KHz
Frame rate : 31.250 fps (1536 spf)
Compression mode : Lossy
Stream size : 330 MiB (16%)
Language : Russian
Default : Yes
Forced : No
Audio #3
ID : 3
Format : AC-3
Format/Info : Audio Coding 3
Mode extension : CM (complete main)
Format settings, Endianness : Big
Codec ID : A_AC3
Duration : 1h 42mn
Bit rate mode : Constant
Bit rate : 448 Kbps
Channel(s) : 6 channels
Channel positions : Front: L C R, Side: L R, LFE
Sampling rate : 48.0 KHz
Frame rate : 31.250 fps (1536 spf)
Compression mode : Lossy
Stream size : 330 MiB (16%)
Language : English
Default : No
Forced : No
Text #4
ID : 4
Format : UTF-8
Codec ID : S_TEXT/UTF8
Codec ID/Info : UTF-8 Plain Text
Duration : 1h 38mn
Bit rate : 79 bps
Count of elements : 1249
Stream size : 57.7 KiB (0%)
Language : Russian
Default : Yes
Forced : No
Text #5
ID : 5
Format : UTF-8
Codec ID : S_TEXT/UTF8
Codec ID/Info : UTF-8 Plain Text
Duration : 1h 42mn
Bit rate : 51 bps
Count of elements : 1412
Stream size : 38.2 KiB (0%)
Language : English
Default : No
Forced : No

лог

raw [info]: 1148x488p 1:1 @ 24000/1001 fps (cfr)
x264 [info]: using SAR=1/1
x264 [info]: using cpu capabilities: MMX2 SSE2Fast SSSE3 SSE4.2 AVX XOP FMA4 FMA3 LZCNT BMI1
x264 [info]: profile High, level 4.1
x264 [info]: frame I:1188 Avg QP:15.76 size: 93761
x264 [info]: frame P:30727 Avg QP:19.17 size: 23470
x264 [info]: frame B:116160 Avg QP:21.95 size: 5831
x264 [info]: consecutive B-frames: 2.2% 2.3% 8.3% 13.3% 14.4% 46.3% 5.6% 1.6% 1.1% 1.2% 1.2% 1.1% 0.6% 0.9%
x264 [info]: mb I I16..4: 6.5% 75.7% 17.7%
x264 [info]: mb P I16..4: 0.9% 6.8% 1.1% P16..4: 39.8% 26.4% 15.5% 0.0% 0.0% skip: 9.5%
x264 [info]: mb B I16..4: 0.0% 0.4% 0.1% B16..8: 42.0% 8.7% 2.3% direct: 3.4% skip:43.2% L0:45.7% L1:47.1% BI: 7.2%
x264 [info]: 8x8 transform intra:77.2% inter:66.5%
x264 [info]: coded y,uvDC,uvAC intra: 85.2% 80.4% 53.7% inter: 19.8% 13.1% 2.3%
x264 [info]: i16 v,h,dc,p: 41% 13% 6% 40%
x264 [info]: i8 v,h,dc,ddl,ddr,vr,hd,vl,hu: 15% 9% 6% 9% 14% 13% 13% 11% 11%
x264 [info]: i4 v,h,dc,ddl,ddr,vr,hd,vl,hu: 14% 8% 4% 10% 15% 14% 13% 11% 12%
x264 [info]: i8c dc,h,v,p: 38% 23% 21% 18%
x264 [info]: Weighted P-Frames: Y:3.2% UV:1.4%
x264 [info]: ref P L0: 45.6% 13.0% 17.0% 6.0% 5.3% 3.4% 3.3% 1.7% 1.8% 1.3% 1.4% 0.2% 0.0%
x264 [info]: ref B L0: 68.3% 12.9% 6.9% 3.6% 2.7% 2.1% 1.7% 1.0% 0.7% 0.3%
x264 [info]: ref B L1: 90.8% 9.2%
x264 [info]: kb/s:1955.89
x264 [total]: encoded 148075 frames, 8.70 fps, 1955.89 kb/s

Скриншоты


[Profile]  [PM] 
Display posts:    
Reply to topic

Current time is: 25-Jan 16:00

All times are UTC + 2



You cannot post new topics in this forum
You cannot reply to topics in this forum
You cannot edit your posts in this forum
You cannot delete your posts in this forum
You cannot vote in polls in this forum
You cannot attach files in this forum
You cannot download files in this forum