Феникс 9 / Phoenix 9 (Амир Рейхарт / Amir Reichart) [2014, Германия, США, короткометражка, фантастика, боевик, триллер, WEB-DLRip-AVC] DVO (DeeAFilm Studio) + Original (Eng)

Reply to topic
 
Author
Message

Satyr ®

Gender: Unknown

Longevity: 10 years

Posts: 14656

Reputation: 54 [+] [-]

Satyr · Post 03-Feb-2017 16:10

[Quote] 

Феникс 9 : Phoenix 9«A better future is waiting for you...» Год выпуска: 2014
Страна: Германия, США
Жанр: короткометражка, фантастика, боевик, триллер
Продолжительность: 00:22:16
Перевод: Любительский (Двухголосый закадровый) - DeeAFilm Studio
субтитры: отсутствуют-Режиссёр: Амир Рейхарт : Amir Reichart
В главных ролях: Майкл Дейвис, Даниэла Флинн, Нора Хюц, Синтия Киршнер, Stephen Laferriere, Paul Lange, Рассел Льюис, Расселл Скотт Льюис, Ryan Nelson, Кори Ригер-Описание: Каков он, мир после глобальной ядерной войны? Вместо привычных городских и природных пейзажей – сплошная выжженная пустошь. Тем, кому удалось выжить, приходится бороться с голодом и эпидемиями и отгонять от себя мысли о том, что вот она, финальная точка нашей цивилизации.
Действия короткометражки «Феникс 9» немецкого режиссера Амира Рейхарта разворачиваются именно в таком мире. Фильм повествует о группе людей, оставшихся в живых после ядерной войны. Они пересекают бескрайние пустыни в поисках укрытия. Им удается обнаружить секретную установку, которая позволит начать все сначала, но при определенном условии…- -Качество: WEB-DLRip-AVC
Формат: MKV
Видео кодек: AVC
Аудио кодек: АAС
Видео: 1072x450, 23,976 fps, ~1742 kbps avg, 0.151 bit/pixel
Аудио #1: [RUS] 48 kHz, AAC, 2ch, ~135 kbps
Аудио #2: [ENG] 48 kHz, AAC, 2ch, ~256 kbps

скриншоты

DeeAFilm Studio

Озвучили: Михаил Дипалом, Маргарита Сахно
Перевод: Юрий Аркалов

MediaInfo

Общее
Уникальный идентификатор : 244585342385166482891111568120432937715 (0xB8016C69906603A5AB2DAA2CDAF5CAF3)
Полное имя : D:\Short\Phoenix 9\Phoenix 9.2014.WEB-DLRip-AVC.mkv
Формат : Matroska
Версия формата : Version 4 / Version 2
Размер файла : 340 Мбайт
Продолжительность : 22 м.
Общий поток : 2136 Кбит/сек
Название фильма : Phoenix 9.2014.WEB-DLRip-AVC -Azureus-
Дата кодирования : UTC 2017-02-02 05:38:49
Программа кодирования : mkvmerge v9.4.0 ('Knurl') 64bit
Библиотека кодирования : libebml v1.3.4 + libmatroska v1.4.5
Видео
Идентификатор : 1
Формат : AVC
Формат/Информация : Advanced Video Codec
Профиль формата : High@L4.1
Параметр CABAC формата : Да
Параметр ReFrames формата : 9 кадров
Идентификатор кодека : V_MPEG4/ISO/AVC
Продолжительность : 22 м.
Битрейт : 1742 Кбит/сек
Ширина : 1072 пикселя
Высота : 450 пикселей
Соотношение сторон : 2,40:1
Режим частоты кадров : Постоянный
Частота кадров : 23,976 (24000/1001) кадра/сек
Частота кадров в оригинале : 23,976 (23976/1000) кадра/сек
Цветовое пространство : YUV
Субдискретизация насыщенности : 4:2:0
Битовая глубина : 8 бит
Тип развёртки : Прогрессивная
Бит/(Пиксели*Кадры) : 0.151
Размер потока : 278 Мбайт (82%)
Библиотека кодирования : x264 core 148 r2744kMod b97ae06
Настройки программы : cabac=1 / ref=9 / deblock=1:-2:-1 / analyse=0x3:0x133 / me=umh / subme=11 / psy=1 / fade_compensate=0.00 / psy_rd=0.60:0.00 / mixed_ref=1 / me_range=32 / chroma_me=1 / trellis=2 / 8x8dct=1 / cqm=0 / deadzone=21,11 / fast_pskip=0 / chroma_qp_offset=-2 / threads=6 / lookahead_threads=1 / sliced_threads=0 / nr=0 / decimate=1 / interlaced=0 / bluray_compat=0 / constrained_intra=0 / bframes=16 / b_pyramid=2 / b_adapt=2 / b_bias=0 / direct=3 / weightb=1 / open_gop=0 / weightp=2 / keyint=250 / keyint_min=23 / scenecut=40 / intra_refresh=0 / rc_lookahead=70 / rc=crf / mbtree=0 / crf=18.0000 / qcomp=0.60 / qpmin=0 / qpmax=69 / qpstep=4 / vbv_maxrate=50000 / vbv_bufsize=62500 / crf_max=0.0 / nal_hrd=none / filler=0 / ip_ratio=1.40 / pb_ratio=1.30 / aq=3:1.00
Default : Да
Forced : Нет
Цветовой диапазон : Limited
Основные цвета : BT.709
Характеристики трансфера : BT.709
Коэффициенты матрицы : BT.709
Аудио #1
Идентификатор : 2
Формат : AAC
Формат/Информация : Advanced Audio Codec
Профиль формата : LC
Идентификатор кодека : A_AAC
Продолжительность : 22 м.
Битрейт : 135 Кбит/сек
Каналы : 2 канала
Расположение каналов : Front: L R
Частота : 48,0 КГц
Частота кадров : 46,875 кадров/сек (1024 spf)
Метод сжатия : С потерями
Задержка видео : 9 мс.
Размер потока : 21,5 Мбайт (6%)
Заголовок : DVO - DeeAFilm Studio
Язык : Russian
Default : Да
Forced : Нет
Аудио #2
Идентификатор : 3
Формат : AAC
Формат/Информация : Advanced Audio Codec
Профиль формата : LC
Идентификатор кодека : A_AAC
Продолжительность : 22 м.
Битрейт : 256 Кбит/сек
Каналы : 2 канала
Расположение каналов : Front: L R
Частота : 48,0 КГц
Частота кадров : 46,875 кадров/сек (1024 spf)
Метод сжатия : С потерями
Размер потока : 40,8 Мбайт (12%)
Заголовок : ENG
Язык : English
Default : Нет
Forced : Нет
[Profile]  [PM] 
Display posts:    
Reply to topic

Current time is: 16-Dec 09:25

All times are UTC + 2



You cannot post new topics in this forum
You cannot reply to topics in this forum
You cannot edit your posts in this forum
You cannot delete your posts in this forum
You cannot vote in polls in this forum
You cannot attach files in this forum
You cannot download files in this forum