Крестные отцы / Compadres (Энрике Бэн / Enrique Begne) [2016, Мексика, Боевик, комедия, HDRip] DVO (datynet & Galina Vasyukova, перевод: Куценко) + Sub Eng + Original Eng

Reply to topic
 
Author
Message

Satyr ®

Online

Gender: Unknown

Longevity: 10 years

Posts: 14643

Reputation: 54 [+] [-]

Satyr · Post 03-Feb-2017 16:10

[Quote] 

Крестные отцы / Compadres Страна: Мексика
Жанр: Боевик, комедия
Год выпуска: 2016
Продолжительность: 01:42:13
Перевод: Любительский (двухголосый закадровый) datynet & Galina Vasyukova, перевод: Куценко
Cубтитры: английские
Оригинальная аудиодорожка: английский
Режиссер: Энрике Бэн / Enrique Begne
В ролях: Армандо Эрнандес, Камила Соди, Эрик Элиас, Айслинн Дербес, Омар Чапарро, Эктор Хименес, Кевин Поллак, Alejandra Guilmant, Джои Морган, Эрик Робертс
Описание: Мексиканский коп жаждет отомстить банде наркоторговцев за смерть своей жены. Но в одиночку это будет сделать нелегко, поэтому он берет себе в «напарники» незадачливого американского хакера. Пусть он толстяк и рохля, но дело свое знает на «5+», другое дело, что всю силовую работу придется выполнять самому.
Доп. информация: http://www.imdb.com/title/tt3367294/?ref_=fn_al_tt_1
https://www.kinopoisk.ru/film/823060/
Сэмпл: http://multi-up.com/1138619
Качество видео: HDRip
Формат видео: AVI
Видео: 720x304 (2.37:1), 23.976 fps, XviD MPEG-4 ~1522 kbps avg, 0.29 bit/pixel
Аудио: Русский: 48 kHz, MPEG Layer 3, 2 ch, ~128.00 kbps avg [datynet & Galina Vasyukova]
Аудио 2: Английский: 48 kHz, AC3 Dolby Digital, 3/2 (L,C,R,l,r) + LFE ch, ~384 kbps [Оригинал]
Формат субтитров: hardsub (неотключаемые)

MediaInfo

General
Complete name : E:\Compadres.2016.HDRip.x264.AAC5.1\Compadres.2016.L2.HDRip.avi
Format : AVI
Format/Info : Audio Video Interleave
File size : 1.46 GiB
Duration : 1h 42mn
Overall bit rate : 2 049 Kbps
Writing application : VirtualDubMod 1.5.10.2 (build 2542/release)
Writing library : VirtualDubMod build 2542/release
Video
ID : 0
Format : MPEG-4 Visual
Format profile : Advanced Simple@L5
Format settings, BVOP : 2
Format settings, QPel : No
Format settings, Matrix : Default (H.263)
Codec ID : XVID
Codec ID/Hint : XviD
Duration : 1h 42mn
Bit rate : 1 523 Kbps
Width : 720 pixels
Height : 304 pixels
Display aspect ratio : 2.35:1
Frame rate : 23.976 fps
Color space : YUV
Chroma subsampling : 4:2:0
Bit depth : 8 bits
Scan type : Progressive
Compression mode : Lossy
Bits/(Pixel*Frame) : 0.290
Stream size : 1.09 GiB (74%)
Writing library : XviD 66
Audio #1
ID : 1
Format : MPEG Audio
Format version : Version 1
Format profile : Layer 3
Mode : Joint stereo
Codec ID : 55
Codec ID/Hint : MP3
Duration : 1h 42mn
Bit rate mode : Constant
Bit rate : 128 Kbps
Channel(s) : 2 channels
Sampling rate : 48.0 KHz
Compression mode : Lossy
Stream size : 93.6 MiB (6%)
Alignment : Aligned on interleaves
Interleave, duration : 42 ms (1.00 video frame)
Interleave, preload duration : 504 ms
Writing library : LAME3.99.5ЄЄ,ДRI№#Dђ
Audio #2
ID : 2
Format : AC-3
Format/Info : Audio Coding 3
Mode extension : CM (complete main)
Format settings, Endianness : Big
Codec ID : 2000
Duration : 1h 42mn
Bit rate mode : Constant
Bit rate : 384 Kbps
Channel(s) : 6 channels
Channel positions : Front: L C R, Side: L R, LFE
Sampling rate : 48.0 KHz
Bit depth : 16 bits
Compression mode : Lossy
Stream size : 281 MiB (19%)
Alignment : Split accross interleaves
Interleave, duration : 42 ms (1.00 video frame)
Interleave, preload duration : 500 ms

Скриншоты

[Profile]  [PM] 
Display posts:    
Reply to topic

Current time is: 15-Dec 04:19

All times are UTC + 2



You cannot post new topics in this forum
You cannot reply to topics in this forum
You cannot edit your posts in this forum
You cannot delete your posts in this forum
You cannot vote in polls in this forum
You cannot attach files in this forum
You cannot download files in this forum