Черви / Squirm (Джефф Либерман / Jeff Lieberman) [1976, США, ужасы, DVD9 (Custom)] DVO (НТВ+) + Original Eng

Reply to topic
 
Author
Message

Faust ®

Gender: Unknown

Longevity: 8 years 4 months

Posts: 14005

Reputation: 0 [+] [-]

Faust · Post 04-Feb-2017 00:16

[Quote] 

Черви / Squirm
Страна: США
Студия: American International Pictures (AIP), Squirm Company
Жанр: ужасы
Год выпуска: 1976
Продолжительность: 01:28:59
Перевод: Профессиональный (двухголосый закадровый) НТВ+
Cубтитры: нет
Оригинальная аудиодорожка: английский
Режиссер: Джефф Либерман / Jeff Lieberman
В ролях: Дон Скардино, Патриция Пирси, Р.А. Дау, Джин Салливан, Питер Маклин, Фран Хиггинс, Уильям Ньюман, Барбара Куинн, Энджел Сэнд, Карл Дагенхарт
Описание: После сильного шторма в одну из ненастных южных ночей небольшой провинциальный городок Флай-Крик лишился электричества из-за повреждения высоковольтной линии. Кабель с линии, продолжал подавать энергию, только не в дома мирных сельских жителей, а прямиком в почву, кишащую дождевыми червями. От столь серьезного «электрошока» червяки из безобидных существ превратились в опасных монстров, жаждущих человеческой крови, которая вскоре, и пролилась…
Доп. информация: Доп. информация: Русские звуковые дорожки взяты с этих раздач http://torrentsland.com.ua/forum/viewtopic.php?t=4836291 авторам большое спасибо.
За синхронизацию дорожек огромное спасибо Нордер
При пересборе двд были использованы программы:
VirtualDubMod_1_5_10_2_All_inclusive - извлечение русской дорожки из рипа
PgcDemux - разделение компонентов диска на файлы
Muxman - мультиплексирование и авторинг DVD
VobBlanker - реавторинг DVD

Скрин завершения проекта

Бонусы: Коментарии, интервью, галерея.
Сэмпл: http://sendfile.su/1303003
Тип релиза: DVD9 (Custom)
Контейнер: DVD-Video
Видео: PAL 16:9 (720x576) VBR Auto Pan&Scan
Аудио: Russian (Dolby AC3, 192 Кбит/сек, 2 ch)
Аудио 2: English (LinearPCM, 1536 Кбит/сек, 2 ch)
Аудио 3: English (Dolby AC3, 224 Кбит/сек, 2 ch)

DVDInfo

Title:
Size: 7.31 Gb ( 7 662 608 KBytes ) - DVD-9
Enabled regions: 1, 2, 3, 4, 5, 6, 7, 8
VTS_01 :
Play Length: 00:00:10+00:00:14
Video: PAL 16:9 (720x576) VBR, Auto Pan&Scan
Audio:
Not specified (Dolby AC3, 2 ch)
VTS_02 :
Play Length: 01:28:59
Video: PAL 16:9 (720x576) VBR, Auto Pan&Scan
Audio:
Russian (Dolby AC3, 2 ch)
English (LinearPCM, 2 ch)
English (Dolby AC3, 2 ch)
Subtitles:
English
English
VTS_03 :
Play Length: 00:15:30+00:01:50+00:23:04
Video: PAL 16:9 (720x576) VBR, Auto Pan&Scan
Audio:
English (Dolby AC3, 2 ch)
Menu Video:
PAL 16:9 (720x576) VBR
Auto Pan&Scan
Menu Audio:
Not specified (Dolby AC3, 2 ch)
Menu Subtitles:
Not specified
Menu English Language Unit :
Root Menu
Angle menu
Audio Menu
Chapter (PTT) Menu

MediaInfo

Общее
Полное имя : D:\DVD ГОТОВЫЕ\Squirm_1976\VIDEO_TS\VTS_02_1.VOB
Формат : MPEG-PS
Размер файла : 1024 Мбайт
Продолжительность : 16 м.
Режим общего битрейта : Переменный
Общий поток : 8900 Кбит/сек
Видео
Идентификатор : 224 (0xE0)
Формат : MPEG Video
Версия формата : Version 2
Профиль формата : Main@Main
Параметр BVOP формата : Да
Параметр матрицы формата : Выборочная
Параметр GOP формата : M=3, N=12
Продолжительность : 16 м.
Вид битрейта : Переменный
Битрейт : 6771 Кбит/сек
Максимальный битрейт : 9800 Кбит/сек
Ширина : 720 пикселей
Высота : 576 пикселей
Соотношение сторон : 16:9
Частота кадров : 25,000 кадров/сек
Стандарт вещания : PAL
Цветовое пространство : YUV
Субдискретизация насыщенности : 4:2:0
Битовая глубина : 8 бит
Тип развёртки : Чересстрочная
Порядок развёртки : Верхнее поле первое
Метод сжатия : С потерями
Бит/(Пиксели*Кадры) : 0.653
Временной код первого кадра : 01:00:00:00
Оригинал временного кода : Group of pictures header
Размер потока : 779 Мбайт (76%)
Аудио #1
Идентификатор : 189 (0xBD)-128 (0x80)
Формат : AC-3
Формат/Информация : Audio Coding 3
Расширение режима : CM (complete main)
Параметр Endianness формата : Big
Режим смешивания : DVD-Video
Продолжительность : 16 м.
Вид битрейта : Постоянный
Битрейт : 192 Кбит/сек
Каналы : 2 канала
Расположение каналов : Front: L R
Частота : 48,0 КГц
Битовая глубина : 16 бит
Метод сжатия : С потерями
Размер потока : 22,1 Мбайт (2%)
Аудио #2
Идентификатор : 189 (0xBD)-130 (0x82)
Формат : AC-3
Формат/Информация : Audio Coding 3
Расширение режима : CM (complete main)
Параметр Endianness формата : Big
Режим смешивания : DVD-Video
Продолжительность : 16 м.
Вид битрейта : Постоянный
Битрейт : 224 Кбит/сек
Каналы : 2 канала
Расположение каналов : Front: L R
Частота : 48,0 КГц
Битовая глубина : 16 бит
Метод сжатия : С потерями
Размер потока : 25,8 Мбайт (3%)
Аудио #3
Идентификатор : 189 (0xBD)-161 (0xA1)
Формат : PCM
Параметр Endianness формата : Big
Параметр Sign формата : Signed
Режим смешивания : DVD-Video
Продолжительность : 16 м.
Вид битрейта : Постоянный
Битрейт : 1536 Кбит/сек
Каналы : 2 канала
Частота : 48,0 КГц
Битовая глубина : 16 бит
Размер потока : 177 Мбайт (17%)
Текст #1
Идентификатор : 189 (0xBD)-32 (0x20)
Формат : RLE
Формат/Информация : Run-length encoding
Режим смешивания : DVD-Video
Текст #2
Идентификатор : 189 (0xBD)-33 (0x21)
Формат : RLE
Формат/Информация : Run-length encoding
Режим смешивания : DVD-Video
Меню

Скриншоты меню

Скриншоты

[Profile]  [PM] 
Display posts:    
Reply to topic

Current time is: 25-Jan 15:58

All times are UTC + 2



You cannot post new topics in this forum
You cannot reply to topics in this forum
You cannot edit your posts in this forum
You cannot delete your posts in this forum
You cannot vote in polls in this forum
You cannot attach files in this forum
You cannot download files in this forum