Прибытие / Arrival (Дени Вильнёв / Denis Villeneuve) [2016, США, Фантастика, триллер, драма, детектив, экранизация, HDRip] Dub (iTunes) + Sub Rus

Reply to topic
 
Author
Message

Satyr ®

Gender: Unknown

Longevity: 10 years

Posts: 14651

Reputation: 54 [+] [-]

Satyr · Post 04-Feb-2017 00:16

[Quote] 

ПРИБЫТИЕ / ARRIVAL
Страна: США
Жанр: Фантастика, триллер, драма, детектив, экранизация
Год выпуска: 2016
Продолжительность: 01:56:22-Перевод: Профессиональный (дублированный) iTunes
Cубтитры: Русские форсированные (отдельно)-Режиссер: Дени Вильнёв / Denis Villeneuve-В ролях: Эми Адамс, Джереми Реннер, Форест Уитакер, Майкл Стулбарг, Сангита Патель, Марк О’Брайэн, Эбигейл Пнёвски, Ци Ма, Натали Тибо, Рут Чианг, Анана Ридвальд, Расселл Юэнь, Фрэнк Фиола, Ларри Дэй, Пэт Кили, Джо Кобден, Джулиан Кэйси, Эндрю Шэйвер, Макс Уолкер, Кристиан Джада, Женевьева Сироис, Мустафа Хайдари, Кэтлин Ставерт, Шон Кэмпбелл-Описание: Неожиданное появление неопознанных летающих объектов в разных точках планеты повергает мир в трепет. Намерения пришельцев не ясны — вооруженные силы всего мира приведены в полную боевую готовность, а лучшие умы человечества пытаются понять, как разговаривать с непрошенными гостями. Правительство обращается за помощью к лингвисту Луизе Бэнкс и физику Яну Доннели, чтобы предотвратить глобальную катастрофу и найти общий язык с пришельцами. Отныне судьба человечества находится в их руках.- -Качество видео: HDRip [Arrival.2016.1080p.BluRay.x264-SPARKS[EtHD].mkv]
Формат видео: AVI
Видео: XviD, 688x288, 2.40:1, 23.976 fps, 760 kbps, 0.160 bit/pixel
Аудио: 48 kHz, MPEG Layer 3, 2 ch, ~128.00 kbps avg - DUB
Формат субтитров: softsub (SRT)
Доп. информация о субтитрах: на речь пришельцев

Знаете ли вы, что...

- В основе фильма лежит повесть Теда Чана «История твоей жизни» (Story of Your Life, 1998)
- Изначально фильм назывался «История вашей жизни», но результаты тестов фокус-групп показали, что большинству такое название не нравится, и в итоге его заменили на «Прибытие»

MediaInfo

General
Complete name : D:\Video\Arrival.2016.HDRip.745MB.avi
Format : AVI
Format/Info : Audio Video Interleave
File size : 746 MiB
Duration : 1h 56mn
Overall bit rate : 896 Kbps
Video
ID : 0
Format : MPEG-4 Visual
Format profile : Advanced Simple@L5
Format settings, BVOP : 1
Format settings, QPel : No
Format settings, GMC : No warppoints
Format settings, Matrix : Custom
Codec ID : XVID
Codec ID/Hint : XviD
Duration : 1h 56mn
Bit rate : 762 Kbps
Width : 688 pixels
Height : 288 pixels
Display aspect ratio : 2.40:1
Frame rate : 23.976 fps
Color space : YUV
Chroma subsampling : 4:2:0
Bit depth : 8 bits
Scan type : Progressive
Compression mode : Lossy
Bits/(Pixel*Frame) : 0.160
Stream size : 634 MiB (85%)
Writing library : XviD 73
Audio
ID : 1
Format : MPEG Audio
Format version : Version 1
Format profile : Layer 3
Mode : Joint stereo
Mode extension : MS Stereo
Codec ID : 55
Codec ID/Hint : MP3
Duration : 1h 56mn
Bit rate mode : Constant
Bit rate : 128 Kbps
Channel(s) : 2 channels
Sampling rate : 48.0 KHz
Compression mode : Lossy
Stream size : 107 MiB (14%)
Alignment : Aligned on interleaves
Interleave, duration : 167 ms (4.00 video frames)
Interleave, preload duration : 216 ms
Title : iTunes
Writing library : LAME3.99r
Encoding settings : -m j -V 4 -q 2 -lowpass 17 -b 128

Скриншоты


[Profile]  [PM] 
Display posts:    
Reply to topic

Current time is: 15-Dec 12:43

All times are UTC + 2



You cannot post new topics in this forum
You cannot reply to topics in this forum
You cannot edit your posts in this forum
You cannot delete your posts in this forum
You cannot vote in polls in this forum
You cannot attach files in this forum
You cannot download files in this forum