Прибытие / Arrival (Дени Вильнёв / Denis Villeneuve) [2016, США, Фантастика, триллер, драма, детектив, экранизация, HDRip] Dub (iTunes)

Reply to topic
 
Author
Message

Satyr ®

Gender: Unknown

Longevity: 13 years

Posts: 19595

Reputation: 56 [+] [-]

Satyr · Post 04-Feb-2017 00:16

[Quote] 

Прибытие / Arrival
Страна: США
Жанр: Фантастика, триллер, драма, детектив, экранизация
Год выпуска: 2016
Продолжительность: 01:56:22
Перевод: Профессиональный (дублированный) (iTunes)
Cубтитры: Русские форсированные (отдельно)
Режиссер: Дени Вильнёв / Denis Villeneuve
В ролях: Эми Адамс, Джереми Реннер, Майкл Стулбарг, Форест Уитакер, Сангита Патель, Марк О’Брайэн, Эбигейл Пнёвски, Ци Ма, Натали Тибо, Рут Чианг, Анана Ридвальд, Расселл Юэнь, Фрэнк Фиола, Ларри Дэй, Пэт Кили, Джо Кобден, Джулиан Кэйси, Эндрю Шэйвер, Макс Уолкер, Кристиан Джада, Женевьева Сироис, Мустафа Хайдари, Кэтлин Ставерт, Шон Кэмпбелл
Описание: В разных уголках планеты внезапно появляются неопознанные летающие объекты. Они мирно зависают над поверхностью и всем своим видом демонстрируют полное равнодушие к населению. Цели их визита неизвестны, язык не узнаваем и вообще никто ничего не понимает. Стремясь установить с инопланетянами контакт, и обойтись без танковых клиньев, правительство привлекает к этому крайне запутанному делу лингвиста Луизу Бэнкс и физика Яна Доннели. Им необходимо понять замыслы пришельцев до того, пока кто-нибудь из военных на почве нервного срыва не решится превратить весь мир в могильник с ядерными отходами. В основе фильма лежит повесть Теда Чана «История твоей жизни» (Story of Your Life, 1998).
Сэмпл
Качество видео: HDRip
Формат видео: AVI
Видео: 720x304 (2.37:1), 23.976 fps, XviD build 73 ~1393 kbps avg, 0.27 bit/pixel
Аудио: AC3, 6 ch, 384 kbps, 48 khz

MediaInfo

General
Complete name : D:\Rips\Arrival.2016.HDRip.1.46Gb.MegaPeer\Arrival.2016.HDRip.1.46Gb.MegaPeer.avi
Format : AVI
Format/Info : Audio Video Interleave
File size : 1.45 GiB
Duration : 1 h 56 min
Overall bit rate : 1 785 kb/s
Video
ID : 0
Format : MPEG-4 Visual
Format profile : Advanced Simple@L5
Format settings, BVOP : 1
Format settings, QPel : No
Format settings, GMC : No warppoints
Format settings, Matrix : Custom
Codec ID : XVID
Codec ID/Hint : XviD
Duration : 1 h 56 min
Bit rate : 1 393 kb/s
Width : 720 pixels
Height : 304 pixels
Display aspect ratio : 2.35:1
Frame rate : 23.976 (24000/1001) FPS
Color space : YUV
Chroma subsampling : 4:2:0
Bit depth : 8 bits
Scan type : Progressive
Compression mode : Lossy
Bits/(Pixel*Frame) : 0.266
Stream size : 1.13 GiB (78%)
Writing library : XviD 73
Audio
ID : 1
Format : AC-3
Format/Info : Audio Coding 3
Mode extension : CM (complete main)
Format settings, Endianness : Big
Codec ID : 2000
Duration : 1 h 56 min
Bit rate mode : Constant
Bit rate : 384 kb/s
Channel(s) : 6 channels
Channel positions : Front: L C R, Side: L R, LFE
Sampling rate : 48.0 kHz
Frame rate : 31.250 FPS (1536 spf)
Bit depth : 16 bits
Compression mode : Lossy
Stream size : 320 MiB (22%)
Alignment : Aligned on interleaves
Interleave, duration : 64 ms (1.53 video frames)
Interleave, preload duratio : 192 ms
Title : iTunes

Скриншоты

[Profile]  [PM] 
Display posts:    
Reply to topic

Current time is: 08-Aug 06:42

All times are UTC + 2



You cannot post new topics in this forum
You cannot reply to topics in this forum
You cannot edit your posts in this forum
You cannot delete your posts in this forum
You cannot vote in polls in this forum
You cannot attach files in this forum
You cannot download files in this forum