Агнес. История одной любви / Agnes (Йоханнес Шмид / Johannes Schmid) [2016, Германия, драма, мелодрама, DVDRip] VO

Reply to topic
 
Author
Message

Satyr ®

Gender: Unknown

Longevity: 10 years

Posts: 14651

Reputation: 54 [+] [-]

Satyr · Post 04-Feb-2017 00:16

[Quote] 

Агнес. История одной любви / Agnes- Страна: Германия
Жанр: Драма, мелодрама
Год выпуска: 2016
Продолжительность: 01:40:37-Перевод: Одноголосый закадровый - Павел Морозов (по субтитрам Константина Ломова).
Cубтитры: нет-Режиссер: Йоханнес Шмид / Johannes Schmid-В ролях: Одине Йоне, Штефан Кампвирт, Соня Баум, Уолтер Хесс, Берит Менц, Оливер Бюргин, Джонни Мэтью-Описание: Писатель Вальтер случайно знакомится в библиотеке со студенткой Агнес. Вальтер вообще-то пишет в основном учебные пособия, но Агнес уговаривает его написать роман об истории их отношений. Вальтер увлекается этой идеей, но его стремление придать роману драматичность приводит к реальной жизненной драме.-Сэмпл: http://multi-up.com/1138738-Качество видео: DVDRip
Формат видео: AVI
Видео: 688x288 (2.40:1), 25.000 fps, XviD build 73, 853 Kbps
Аудио: 48.0 kHz, MPEG Layer 3, 2 ch, 192 kbps-Релиз-группа: -

MediaInfo

General
Complete name : Downloads\Agnes.2016.PashaUp.DVDRip.ExKinoRay.avi
Format : AVI
Format/Info : Audio Video Interleave
File size : 759 MiB
Duration : 1h 40mn
Overall bit rate : 1 055 Kbps
Writing application : VirtualDubMod 1.5.10.3 | www.virtualdub-fr.org || (build 2550/release)
Writing library : VirtualDubMod build 2550/release
Video #0
ID : 0
Format : MPEG-4 Visual
Format profile : Advanced Simple@L5
Format settings, BVOP : 1
Format settings, QPel : No
Format settings, GMC : No warppoints
Format settings, Matrix : Custom
Codec ID : XVID
Codec ID/Hint : XviD
Duration : 1h 40mn
Bit rate : 853 Kbps
Width : 688 pixels
Height : 288 pixels
Display aspect ratio : 2.40:1
Frame rate : 25.000 fps
Color space : YUV
Chroma subsampling : 4:2:0
Bit depth : 8 bits
Scan type : Progressive
Compression mode : Lossy
Bits/(Pixel*Frame) : 0.172
Stream size : 614 MiB (81%)
Writing library : XviD 73
Audio #1
ID : 1
Format : MPEG Audio
Format version : Version 1
Format profile : Layer 3
Mode : Joint stereo
Mode extension : MS Stereo
Codec ID : 55
Codec ID/Hint : MP3
Duration : 1h 40mn
Bit rate mode : Constant
Bit rate : 192 Kbps
Channel(s) : 2 channels
Sampling rate : 48.0 KHz
Compression mode : Lossy
Stream size : 138 MiB (18%)
Alignment : Aligned on interleaves
Interleave, duration : 40 ms (1.00 video frame)
Interleave, preload duration : 504 ms

Скриншот c названием фильма

Скриншоты

[Profile]  [PM] 
Display posts:    
Reply to topic

Current time is: 15-Dec 12:43

All times are UTC + 2



You cannot post new topics in this forum
You cannot reply to topics in this forum
You cannot edit your posts in this forum
You cannot delete your posts in this forum
You cannot vote in polls in this forum
You cannot attach files in this forum
You cannot download files in this forum