Чёрные паруса / Black Sails (Сезон 4 , Серии 1-10 из 10) (Нил Маршалл, Сэм Миллер, Т.Дж. Скотт) [2017, Драма, приключения, WEB-DLRip 1080p] [DD5.1] [MVO] [AlexFilm , SDI Media , LostFilm , BaibaKo , АМS , English + Subs Rus,ENG]

Reply to topic
 
Author
Message

Враг Нароода ®

Gender: Unknown

Longevity: 5 years 3 months

Posts: 382

Reputation: 1 [+] [-]

Враг Нароода · Post 04-Feb-2017 15:56

[Quote] 

--Чёрные паруса / Black Sails Сезон 4, Серии 1-10 из 10-- -- --Год выпуска: 2017
Выпущено:США, ЮАР, Film Afrika Worldwide CC, Platinum Dunes
Жанр: Драма, приключения
Продолжительность: 00:57:30
Сезон: 4
Серия: 1-10
Количество серий в сезоне: 10
Озвучка 1 :Многоголосое профессиональное закадровое озвучание - AlexFilm -Русский
Озвучка 2 :Многоголосое профессиональное закадровое озвучание - SDI Media -Русский
Озвучка 3:Многоголосое профессиональное закадровое озвучание - LostFilm -Русский
Озвучка 4:Многоголосое профессиональное закадровое озвучание - BaibaKo -Русский
Озвучка 5:Многоголосое профессиональное закадровое озвучание - АМS -Русский
Озвучка 6: Профессиональный многоголосый - English-Английский - Оригинал
Субтитры: Русские , Английские --Сайт сериала:
--Режиссер: Нил Маршалл, Сэм Миллер, Т.Дж. Скотт--В ролях: Тоби Стивенс, Ханна Нью, Люк Арнольд, Зэк Макгоун, Тоби Шмитц, Клара Пэджет, Марк Райан, Хаким Кае-Казим, Дилан Скьюс, Шон Майкл и др.-- 1715 год. Золотой век — вершина пиратства в Карибском море. Остров бывшей британской колонии Нью-Провиденс является территорией беззакония, контролируемый самыми известными пиратскими капитанами в истории. Самым грозным из них является капитан Флинт.Но британский флот возвращается в эти воды, угрожая уничтожить Флинта и его команду. Движимый глубокими, сложными, даже романтическими мотивами, Флинт становится союзником с грозной Элеонорой Гатри, дочерью местного вора в законе, который превращает добычу пиратов в прибыль. Вместе они создают план, охотясь за высшей наградой, выиграв которую, они остановят захват своего дома и обеспечат их выживание.Им противостоит ряд соперников: конкурент капитана, завидующий власти Флинта, отец Элеоноры, чьи амбиции на острове приводят к конфликту с дочерью, и молодой моряк, Джон Сильвер, недавно принятый в экипаж Флинта, которому каким-то образом удается постоянно срывать планы своего капитана.--Внимание! В сериале присутствуют сцены с обнаженной натурой и ненормативная лексика!-- --Качество :WEB-DLRip 1080p
Формат: MKV
Видео кодек: H264
Видео: 10.2Mбит/сек,1920х1080(16.9),в 23.976кадр/сек,AVC(High@L4.1)(CABAC/4 Ref Frames)
Аудио Кодек:AC3
Аудио #1:AC3 , 384 Kbps, 48.0 KHz, 6 ch- - AlexFilm -Русский
Аудио #2:AC3 , 384 Kbps, 48.0 KHz, 6 ch- - SDI Media -Русский
Аудио #3: AC3, 384 Kbps, 48.0 KHz, 6 ch - - LostFilm -Русский
Аудио #4: AC3, 384 Kbps, 48.0 KHz, 6 ch - - BaibaKo -Русский
Аудио #5: AC3, 384 Kbps, 48.0 KHz, 6 ch - - АМS -Русский
Аудио #6: AC3, 640 Kbps, 48.0 KHz,6 ch - - English-Английский - Оригинал--

Доп. информация:

Звуковая дорожка сделана путем наложения чистого голоса озвучивателей на центральный канал оригинальной дорожки. Качество идентично звуковой дорожке.
--

Список эпизодов сезона

01 Эпизод 1
02 Эпизод 2
03 Эпизод 3
04 Эпизод 4
05 Эпизод 5
06 Эпизод 6
07 Эпизод 7
08 Эпизод 8
09 Эпизод 9
10 Эпизод 10-- --
--

MediaInfo

Общее
Уникальный идентификатор : 250789670468976811400302635596924719130 (0xBCAC556775B431B7B09F77DA1436101A)
Полное имя : D:\ПИРАТИЯ(PIRATIYA)\Чёрные паруса( Black Sails)\Black_Sails_2017_S04[AlexFilm_SDI Media_LostFilm_BaibaKo_АМS]_DD5.1_N.B_WEB-DL_1080_5xRus_Eng\Black_Sails_S04E01_Н264_DD5.1_N.B_WEB-DL_1080p_5xRus_Eng.mkv
Формат : Matroska
Версия формата : Version 4 / Version 2
Размер файла : 5,35 Гбайт
Продолжительность : 59 м. 59 с.
Общий поток : 12,8 Мбит/сек
Название фильма : Black_Sails_S04E01_Н264_DD5.1_N.B_WEB-DL_1080p_5xRus_Eng
Дата кодирования : UTC 2017-03-10 10:17:36
Программа кодирования : mkvmerge v9.9.0 ('Pick Up') 64bit
Библиотека кодирования : libebml v1.3.4 + libmatroska v1.4.5
Видео
Идентификатор : 1
Формат : AVC
Формат/Информация : Advanced Video Codec
Профиль формата : High@L4.1
Параметр CABAC формата : Да
Параметр ReFrames формата : 4 кадра
Идентификатор кодека : V_MPEG4/ISO/AVC
Продолжительность : 59 м. 59 с.
Битрейт : 10,2 Мбит/сек
Ширина : 1920 пикселей
Высота : 1080 пикселей
Соотношение сторон : 16:9
Режим частоты кадров : Постоянный
Частота кадров : 23,976 (24000/1001) кадра/сек
Цветовое пространство : YUV
Субдискретизация насыщенности : 4:2:0
Битовая глубина : 8 бит
Тип развёртки : Прогрессивная
Бит/(Пиксели*Кадры) : 0.206
Размер потока : 4,28 Гбайт (80%)
Заголовок : Black_Sails_S04E01_Н264_DD5.1_N.B_WEB-DL_1080p_5xRus_Eng
Язык : Russian
Default : Нет
Forced : Нет
Аудио #1
Идентификатор : 4
Формат : AC-3
Формат/Информация : Audio Coding 3
Параметр Endianness формата : Big
Идентификатор кодека : A_AC3
Продолжительность : 59 м. 58 с.
Вид битрейта : Постоянный
Битрейт : 384 Кбит/сек
Каналы : 6 каналов
Расположение каналов : Front: L C R, Side: L R, LFE
Частота : 48,0 КГц
Частота кадров : 31,250 кадров/сек (1536 spf)
Битовая глубина : 16 бит
Метод сжатия : С потерями
Размер потока : 165 Мбайт (3%)
Заголовок : MVO AlexFilm @DD5.1 AC3, 384 Kbps, 48.0 KHz, 6 ch
Язык : Russian
ServiceKind/String : Complete Main
Default : Да
Forced : Нет
Аудио #2
Идентификатор : 5
Формат : AC-3
Формат/Информация : Audio Coding 3
Параметр Endianness формата : Big
Идентификатор кодека : A_AC3
Продолжительность : 59 м. 58 с.
Вид битрейта : Постоянный
Битрейт : 384 Кбит/сек
Каналы : 6 каналов
Расположение каналов : Front: L C R, Side: L R, LFE
Частота : 48,0 КГц
Частота кадров : 31,250 кадров/сек (1536 spf)
Битовая глубина : 16 бит
Метод сжатия : С потерями
Размер потока : 165 Мбайт (3%)
Заголовок : MVO SDI Media @DD5.1 AC3, 384 Kbps, 48.0 KHz, 6 ch
Язык : Russian
ServiceKind/String : Complete Main
Default : Нет
Forced : Нет
Аудио #3
Идентификатор : 6
Формат : AC-3
Формат/Информация : Audio Coding 3
Параметр Endianness формата : Big
Идентификатор кодека : A_AC3
Продолжительность : 59 м. 58 с.
Вид битрейта : Постоянный
Битрейт : 384 Кбит/сек
Каналы : 6 каналов
Расположение каналов : Front: L C R, Side: L R, LFE
Частота : 48,0 КГц
Частота кадров : 31,250 кадров/сек (1536 spf)
Битовая глубина : 16 бит
Метод сжатия : С потерями
Размер потока : 165 Мбайт (3%)
Заголовок : MVO LostFilm @DD5.1 AC3, 384 Kbps, 48.0 KHz, 6 ch
Язык : Russian
ServiceKind/String : Complete Main
Default : Нет
Forced : Нет
Аудио #4
Идентификатор : 7
Формат : AC-3
Формат/Информация : Audio Coding 3
Параметр Endianness формата : Big
Идентификатор кодека : A_AC3
Продолжительность : 59 м. 57 с.
Вид битрейта : Постоянный
Битрейт : 384 Кбит/сек
Каналы : 6 каналов
Расположение каналов : Front: L C R, Side: L R, LFE
Частота : 48,0 КГц
Частота кадров : 31,250 кадров/сек (1536 spf)
Битовая глубина : 16 бит
Метод сжатия : С потерями
Размер потока : 165 Мбайт (3%)
Заголовок : MVO BaibaKo @DD5.1 AC3, 384 Kbps, 48.0 KHz, 6 ch
Язык : Russian
ServiceKind/String : Complete Main
Default : Нет
Forced : Нет
Аудио #5
Идентификатор : 8
Формат : AC-3
Формат/Информация : Audio Coding 3
Параметр Endianness формата : Big
Идентификатор кодека : A_AC3
Продолжительность : 59 м. 58 с.
Вид битрейта : Постоянный
Битрейт : 640 Кбит/сек
Каналы : 6 каналов
Расположение каналов : Front: L C R, Side: L R, LFE
Частота : 48,0 КГц
Частота кадров : 31,250 кадров/сек (1536 spf)
Битовая глубина : 16 бит
Метод сжатия : С потерями
Размер потока : 275 Мбайт (5%)
Заголовок : Original@DD5.1 AC3 ,640 Kbps, 48.0 KHz, 6 ch
Язык : English
ServiceKind/String : Complete Main
Default : Нет
Forced : Нет
Аудио #6
Идентификатор : 9
Формат : AC-3
Формат/Информация : Audio Coding 3
Параметр Endianness формата : Big
Идентификатор кодека : A_AC3
Продолжительность : 59 м. 58 с.
Вид битрейта : Постоянный
Битрейт : 384 Кбит/сек
Каналы : 6 каналов
Расположение каналов : Front: L C R, Side: L R, LFE
Частота : 48,0 КГц
Частота кадров : 31,250 кадров/сек (1536 spf)
Битовая глубина : 16 бит
Метод сжатия : С потерями
Размер потока : 165 Мбайт (3%)
Заголовок : MVO AMS @DD5.1 AC3, 384 Kbps, 48.0 KHz, 6 ch
Язык : Russian
ServiceKind/String : Complete Main
Default : Нет
Forced : Нет
Текст #1
Идентификатор : 2
Формат : UTF-8
Идентификатор кодека : S_TEXT/UTF8
Идентификатор кодека/Информация : UTF-8 Plain Text
Продолжительность : 58 м. 38 с.
Битрейт : 87 бит/сек
ElementCount : 657
Размер потока : 37,8 Кбайт (0%)
Заголовок : Rus
Язык : Russian
Default : Нет
Forced : Нет
Текст #2
Идентификатор : 3
Формат : UTF-8
Идентификатор кодека : S_TEXT/UTF8
Идентификатор кодека/Информация : UTF-8 Plain Text
Продолжительность : 58 м. 37 с.
Битрейт : 58 бит/сек
ElementCount : 741
Размер потока : 25,1 Кбайт (0%)
Заголовок : Original
Язык : English
Default : Нет
Forced : Нет
Меню
00:00:00.000 : en:Глава 01 / en:Глава 01 / en:Глава 01 / en:Глава 01 / en:Глава 01 / en:Глава 01 / en:Глава 01 / en:Глава 01 / en:Глава 01
--

Скриншоты

-- --

Как закачать отдельный файл

1. Открыть торрент
2. Снять галки с тех файлов торрента, которые мы не хотим закачивать. Оставляем только на нужных нам файлах (файле).
3. Нажать О.К.
В клиенте utorrent
Инструкция
1) Открыть торрент

2) Снять галки с тех файлов торрента, которые мы не хотим закачивать:
* либо вручную, снимая с каждого файла галку( скрин №1)
* либо, нажав кнопку "Снять метки (Select None)", сняв сразу со всех файлов(скрин №2)
№1

№2

Оставляем только на нужных нам файлах (файле).

3)Нажать О.К
-- -- --Внимание!!! 06.04. 2017. РАЗДАЧА ОБНОВЛЕНА. ФИНАЛ СЕЗОНА. ОБНОВИТЕ ТОРЕНТ ФАЙЛ.ПРИЯТНОГО ПРОСМОТРА . --Релиз от: Nikolai.Baranov & PIRATIYA -- -- -- --
[Profile]  [PM] 
Display posts:    
Reply to topic

Current time is: 15-Dec 12:42

All times are UTC + 2



You cannot post new topics in this forum
You cannot reply to topics in this forum
You cannot edit your posts in this forum
You cannot delete your posts in this forum
You cannot vote in polls in this forum
You cannot attach files in this forum
You cannot download files in this forum