Гений / Genius (Майкл Грандадж / Michael Grandage) [2016, Великобритания, США, драма, биография, BDRip] Dub (BD RUS) + Original Eng + sub eng

Reply to topic
 
Author
Message

Satyr ®

Online

Gender: Unknown

Longevity: 10 years

Posts: 14643

Reputation: 54 [+] [-]

Satyr · Post 04-Feb-2017 16:35

[Quote] 

Гений / Genius- Год выпуска: 2016
Выпущено: Великобритания, США
Жанр: драма, биография
Продолжительность: 01:44:11
Перевод: Профессиональный (полное дублирование) BD RUS
+ Оригинальная звуковая дорожка
Субтитры: Английские (внешние srt*)-Режиссер: Майкл Грандадж / Michael Grandage
В ролях: Колин Фёрт, Николь Кидман, Лора Линни, Джуд Лоу, Доминик Уэст, Гай Пирс, Ванесса Кирби, Марк Арнольд, Джейн Перри, Бернард Коллако
О фильме: История о непростой дружбе двух очень талантливых людей: писателя Томаса Вулфа и издателя Макса Перкинса, открывшего всему миру таких великих романистов, как Ф. Скотт Фицджеральд и Эрнест Хемингуэй.
Релиз:
Автор: sociolog_melvas
Качество: BDRip (источник: BlueBird / Blu-ray / 1080p)
Формат: AVI
Видео: 720x304 (2.37:1), 23.976 fps, XviD build 65 ~2096 kbps avg, 0.40 bit/pixel
Аудио: #1 48 kHz, AC3 Dolby Digital, 3/2 (L,C,R,l,r) + LFE ch, ~448.00 kbps avg rus
Аудио: #2 48 kHz, AC3 Dolby Digital, 3/2 (L,C,R,l,r) + LFE ch, ~448.00 kbps avg eng
Размер: 2234.81 Mb (1/2 DVD)
Скачать: Семпл-

Кадры из фильма


-

Mi

Формат : AVI
Формат/Информация : Audio Video Interleave
Профиль формата : OpenDML
Размер файла : 2,18 Гбайт
Продолжительность : 1 ч. 44 м.
Общий поток : 2999 Кбит/сек
Название фильма : Гений / Genius (2016) BDRip
Режиссёр : sociolog_melvas
Жанр : драма, биография
Программа кодирования : VirtualDubMod 1.5.10.2 (build 2540/release)
Правообладатель : HQCLUB
Примечание : 31.01.2017
Видео
Идентификатор : 0
Формат : MPEG-4 Visual
Профиль формата : Advanced Simple@L5
Параметр BVOP формата : 1
Параметр QPel формата : Нет
Параметр GMC формата : Без точки перехода
Параметр матрицы формата : Выборочная
Идентификатор кодека : XVID
Идентификатор кодека/Подсказка : XviD
Продолжительность : 1 ч. 44 м.
Битрейт : 2085 Кбит/сек
Ширина : 720 пикселей
Высота : 304 пикселя
Соотношение сторон : 2,35:1
Частота кадров : 23,976 кадра/сек
Цветовое пространство : YUV
Субдискретизация насыщенности : 4:2:0
Битовая глубина : 8 бит
Тип развёртки : Прогрессивная
Метод сжатия : С потерями
Бит/(Пиксели*Кадры) : 0.397
Размер потока : 1,52 Гбайт (70%)
Библиотека кодирования : XviD 65
Аудио #1
Идентификатор : 1
Формат : AC-3
Формат/Информация : Audio Coding 3
Расширение режима : CM (complete main)
Параметр Endianness формата : Big
Идентификатор кодека : 2000
Продолжительность : 1 ч. 44 м.
Вид битрейта : Постоянный
Битрейт : 448 Кбит/сек
Каналы : 6 каналов
Расположение каналов : Front: L C R, Side: L R, LFE
Частота : 48,0 КГц
Битовая глубина : 16 бит
Метод сжатия : С потерями
Размер потока : 334 Мбайт (15%)
Выравнивание : Разделение по промежуткам
Продолжительность промежутка : 42 мс. (1,00 видеокадр)
Время предзагрузки промежутка : 500 мс.
Аудио #2
Идентификатор : 2
Формат : AC-3
Формат/Информация : Audio Coding 3
Расширение режима : CM (complete main)
Параметр Endianness формата : Big
Идентификатор кодека : 2000
Продолжительность : 1 ч. 44 м.
Вид битрейта : Постоянный
Битрейт : 448 Кбит/сек
Каналы : 6 каналов
Расположение каналов : Front: L C R, Side: L R, LFE
Частота : 48,0 КГц
Битовая глубина : 16 бит
Метод сжатия : С потерями
Размер потока : 334 Мбайт (15%)
Выравнивание : Разделение по промежуткам
Продолжительность промежутка : 42 мс. (1,00 видеокадр)
Время предзагрузки промежутка : 500 мс.
-
[Profile]  [PM] 
Display posts:    
Reply to topic

Current time is: 15-Dec 04:48

All times are UTC + 2



You cannot post new topics in this forum
You cannot reply to topics in this forum
You cannot edit your posts in this forum
You cannot delete your posts in this forum
You cannot vote in polls in this forum
You cannot attach files in this forum
You cannot download files in this forum