Совершенно секретно / Mesuvag Harig / Freak Out (Боаз Армони / Boaz Armoni) [2015, Израиль, ужасы, комедия, BDRip] MVO (AzOnFilm) + Original Heb + Sub Rus, Eng

Reply to topic
 
Author
Message

Satyr ®

Gender: Unknown

Longevity: 10 years

Posts: 14651

Reputation: 54 [+] [-]

Satyr · Post 04-Feb-2017 16:35

[Quote] 

Совершенно секретно / Mesuvag Harig / Freak Out
Страна: Израиль
Студия: Green Productions
Жанр: Ужасы, комедия
Год выпуска: 2015
Продолжительность: 01:28:26
Перевод: Профессиональный (многоголосый закадровый) AzOnFilm
Cубтитры: Русские, английские (все - внешние)
Оригинальная аудиодорожка: Иврит (внешняя)
Режиссер: Боаз Армони / Boaz Armoni
В ролях: Итай Зволон, Кай Корабельников, Ассаф Бен-Шимон, Эран Перетц, Офер Рутенберг
Описание: Матан - молодой солдат, служба которого проходит в канцелярии - внезапно отправлен на неделю на охрану военного секретного бункера вместе с тремя незнакомыми солдатами, который постоянно унижают его. Из-за них Матан пытается перевестись на другой объект, но сержант Стас уговаривает его отслужить эту неделю, так как специфика охраняемого объекта, а именно радиация, позволяет находиться на нем не более недели непрерывно. Но уже на второй день Матан начинает сомневаться, что переживёт эту долгую неделю...
Дополнительная информация:
Автор релиза -
Источник для рипа - Blu-Ray (GER) - Freak.Out.2015.DUAL.COMPLETE.BLURAY-iFPD
Cборка дороги Spiellberg
За исходные русские субтитры спасибо - Ombranetta
Синхронизация и редактирование русских субтитров - ylnian
Английские субтитры рипнуты мной с BD
Релиз без рекламы!


Сэмпл: https://yadi.sk/i/c_tIvTMC3Cbi4G
Качество видео: BDRip
Формат видео: AVI
Видео: XviD, 720x304 (2,35:1), 24.000 fps, 1765 kbps, 0.336 bit/pixel
Аудио 1: Русский AC3, 48000 Гц, 6ch, 448 kbps
Аудио 2: Иврит AC3, 48000 Гц, 6ch, 448 kbps - внешняя
Формат субтитров: softsub (SRT)

MediaInfo

Общее
Полное имя : E:\Mesuvag.Harig.2015.BDRip-ylnian\Mesuvag.Harig.2015.BDRip-ylnian.avi
Формат : AVI
Формат/Информация : Audio Video Interleave
Размер файла : 1,37 Гбайт
Продолжительность : 1 ч. 28 м.
Общий поток : 2222 Кбит/сек
Название фильма : Mesuvag Harig - 2015 - BDRip - ylnian
Программа кодирования : VirtualDubMod 1.5.10.2 (build 2540/release)
Библиотека кодирования : VirtualDubMod build 2540/release
Видео
Идентификатор : 0
Формат : MPEG-4 Visual
Профиль формата : Advanced Simple@L5
Параметр BVOP формата : 1
Параметр QPel формата : Нет
Параметр GMC формата : Без точки перехода
Параметр матрицы формата : Default (MPEG)
Идентификатор кодека : XVID
Идентификатор кодека/Подсказка : XviD
Продолжительность : 1 ч. 28 м.
Битрейт : 1765 Кбит/сек
Ширина : 720 пикселей
Высота : 304 пикселя
Соотношение сторон : 2,35:1
Частота кадров : 24,000 кадра/сек
Цветовое пространство : YUV
Субдискретизация насыщенности : 4:2:0
Битовая глубина : 8 бит
Тип развёртки : Прогрессивная
Метод сжатия : С потерями
Бит/(Пиксели*Кадры) : 0.336
Размер потока : 1,09 Гбайт (79%)
Библиотека кодирования : XviD 67
Аудио
Идентификатор : 1
Формат : AC-3
Формат/Информация : Audio Coding 3
Расширение режима : CM (complete main)
Параметр Endianness формата : Big
Идентификатор кодека : 2000
Продолжительность : 1 ч. 28 м.
Вид битрейта : Постоянный
Битрейт : 448 Кбит/сек
Каналы : 6 каналов
Расположение каналов : Front: L C R, Side: L R, LFE
Частота : 48,0 КГц
Частота кадров : 31,250 кадров/сек (1536 spf)
Метод сжатия : С потерями
Размер потока : 283 Мбайт (20%)
Выравнивание : Разделение по промежуткам
Продолжительность промежутка : 42 мс. (1,00 видеокадр)
Время предзагрузки промежутка : 500 мс.
Заголовок : MVO - RUS - AzOnFilm
Общее
Полное имя : E:\Mesuvag.Harig.2015.BDRip-ylnian\Mesuvag.Harig.2015.BDRip-ylnian.rus.srt
Формат : SubRip
Размер файла : 81,1 Кбайт
Текст
Формат : SubRip
Метод сжатия : Без потерь
Общее
Полное имя : E:\Mesuvag.Harig.2015.BDRip-ylnian\Mesuvag.Harig.2015.BDRip-ylnian_eng.srt
Формат : SubRip
Размер файла : 56,4 Кбайт
Текст
Формат : SubRip
Метод сжатия : Без потерь
Общее
Полное имя : E:\Mesuvag.Harig.2015.BDRip-ylnian\Mesuvag.Harig.2015.BDRip-ylnian_orig.ac3
Формат : AC-3
Формат/Информация : Audio Coding 3
Размер файла : 283 Мбайт
Продолжительность : 1 ч. 28 м.
Режим общего битрейта : Постоянный
Общий поток : 448 Кбит/сек
Аудио
Формат : AC-3
Формат/Информация : Audio Coding 3
Расширение режима : CM (complete main)
Параметр Endianness формата : Big
Продолжительность : 1 ч. 28 м.
Вид битрейта : Постоянный
Битрейт : 448 Кбит/сек
Каналы : 6 каналов
Расположение каналов : Front: L C R, Side: L R, LFE
Частота : 48,0 КГц
Частота кадров : 31,250 кадров/сек (1536 spf)
Метод сжатия : С потерями
Размер потока : 283 Мбайт (100%)

Скриншот c названием фильма

Скриншоты

[Profile]  [PM] 
Display posts:    
Reply to topic

Current time is: 15-Dec 12:41

All times are UTC + 2



You cannot post new topics in this forum
You cannot reply to topics in this forum
You cannot edit your posts in this forum
You cannot delete your posts in this forum
You cannot vote in polls in this forum
You cannot attach files in this forum
You cannot download files in this forum