Девять ярдов 2 / Десять ярдов / The Whole Ten Yards (Ховард Дойч / Howard Deutch) [2004, США, комедия, криминал, HDRip] DVO (СТС) + AVO (С.Визгунов)

Reply to topic
 
Author
Message

Wolf ®

Gender: Unknown

Longevity: 10 years

Posts: 2856

Reputation: 0 [+] [-]

Wolf · Post 04-Feb-2017 16:35

[Quote] 

Девять ярдов 2 / Десять ярдов / The Whole Ten Yards
Страна: США
Жанр: комедия, криминал
Год выпуска: 2004
Продолжительность: 01:38:32
Перевод: Профессиональный (двухголосый закадровый) СТС
Перевод 2: Авторский (одноголосый закадровый) Сергей Визгунов
Cубтитры: нет
Оригинальная аудиодорожка: нет
Режиссер: Ховард Дойч / Howard Deutch
В ролях: Брюс Уиллис, Мэттью Перри, Аманда Пит, Кевин Поллак, Наташа Хенстридж, Фрэнк Коллисон, Джонни Месснер, Сайлас Уэйр Митчелл, Таша Смит, Элиза Галлай
Описание: Множество неприятностей происходит в жизни нашего любимого дантиста из Беверли Хиллз, Николаса Озерански. Хорошая новость - то что его жена Синтия беременна. А плохая новость? Его одолела паранойя.
Известный главарь венгерской мафии Лазло вышел из тюрьмы и хочет вернуть деньги, которые Озз и Джими-Тюльпан увели у него из под носа. Лазло пойдет на всё, чтобы вернуть свои деньги, и для этой цели он похищает беременную Синтию. История закручивается всё сильней и сильней, но это же всего лишь один день из жизни наших героев.
Доп. информация:
Исходная запись СТС с показа от 26.01.2017
Данные переводы на трекере впервые
Сэмпл: http://sendfile.su/1305225
Качество видео: HDRip(Отсюда)
Формат видео: AVI
Видео: 688x384 (1.79:1), 24.000 fps, XviD build 50 ~1733 kbps avg, 0.27 bit/pixel
Аудио: 48 kHz, AC3 Dolby Digital, 2/0 (L,R), ~192.00 kbps avg
Аудио 2: 48 kHz, AC3 Dolby Digital, 2/0 (L,R), ~192.00 kbps avg

MediaInfo

General
Complete name : L:\The Whole Ten Yards (2004) HDRip.avi
Format : AVI
Format/Info : Audio Video Interleave
File size : 1.47 GiB
Duration : 1h 38mn
Overall bit rate : 2 131 Kbps
Writing application : VirtualDubMod 1.5.10.2 (build 2540/release)
Writing library : VirtualDubMod build 2540/release
Video
ID : 0
Format : MPEG-4 Visual
Format profile : Advanced Simple@L5
Format settings, BVOP : 1
Format settings, QPel : No
Format settings, GMC : No warppoints
Format settings, Matrix : Custom
Codec ID : XVID
Codec ID/Hint : XviD
Duration : 1h 38mn
Bit rate : 1 733 Kbps
Width : 688 pixels
Height : 384 pixels
Display aspect ratio : 16:9
Frame rate : 24.000 fps
Color space : YUV
Chroma subsampling : 4:2:0
Bit depth : 8 bits
Scan type : Progressive
Compression mode : Lossy
Bits/(Pixel*Frame) : 0.273
Stream size : 1.19 GiB (81%)
Writing library : XviD 1.2.1 (UTC 2008-12-04)
Audio #1
ID : 1
Format : AC-3
Format/Info : Audio Coding 3
Mode extension : CM (complete main)
Format settings, Endianness : Big
Codec ID : 2000
Duration : 1h 38mn
Bit rate mode : Constant
Bit rate : 192 Kbps
Channel(s) : 2 channels
Channel positions : Front: L R
Sampling rate : 48.0 KHz
Compression mode : Lossy
Stream size : 135 MiB (9%)
Alignment : Split accross interleaves
Interleave, duration : 42 ms (1.00 video frame)
Interleave, preload duration : 500 ms
Title : MVO.STS
Audio #2
ID : 2
Format : AC-3
Format/Info : Audio Coding 3
Mode extension : CM (complete main)
Format settings, Endianness : Big
Codec ID : 2000
Duration : 1h 38mn
Bit rate mode : Constant
Bit rate : 192 Kbps
Channel(s) : 2 channels
Channel positions : Front: L R
Sampling rate : 48.0 KHz
Compression mode : Lossy
Stream size : 135 MiB (9%)
Alignment : Split accross interleaves
Interleave, duration : 42 ms (1.00 video frame)
Interleave, preload duration : 500 ms
Title : AVO.VIZGUNOV

Скриншот c названием фильма

Скриншоты

[Profile]  [PM] 
Display posts:    
Reply to topic

Current time is: 23-Jan 17:20

All times are UTC + 2



You cannot post new topics in this forum
You cannot reply to topics in this forum
You cannot edit your posts in this forum
You cannot delete your posts in this forum
You cannot vote in polls in this forum
You cannot attach files in this forum
You cannot download files in this forum