Пункт назначения 2 / Final Destination 2 (Дэвид Р. Эллис / David R. Ellis) [2003, США, Канада, ужасы, триллер, BDRip-AVC] Dub + MVO + 2хAVO + Original Eng + Sub (Rus, Eng)

Reply to topic
 
Author
Message

Wolf ®

Gender: Unknown

Longevity: 10 years

Posts: 2860

Reputation: 0 [+] [-]

Wolf · Post 05-Feb-2017 13:00

[Quote] 

Пункт назначения 2 / Final Destination 2- Страна: США, Канада
Жанр: ужасы, триллер
Год выпуска: 2003
Продолжительность: 01:30:11
Перевод 1: Профессиональный (дублированный)
Перевод 2: Профессиональный (многоголосый закадровый) Киномания
Перевод 3: Авторский (одноголосый закадровый) А.Гаврилов
Перевод 4: Авторский (одноголосый закадровый) В.Королев
Cубтитры: русские, английские
Оригинальная аудиодорожка: английский
Режиссер: Дэвид Р. Эллис / David R. Ellis
В ролях: Эли Лартер, А.Дж. Кук, Майкл Лэндис, Дэвид Петкау, Джеймс Кирк, Линда Бойд, Киган Коннор Трейси, Джонатан Черри, Терренс «Т.К.» Карсон, Жустина Мачадо
Описание: Решив провести уикэнд с друзьями подальше от дома, Кимберли Корман становится невольным свидетелем жуткой автокатастрофы! На скоростной магистрали грузовик теряет управление, а вместе с ним и груз, что приводит к серии столкновений автомобилей и множеству жертв, среди которых она сама. Секунду спустя Кимберли снова чувствует биение своего сердца: она жива и по-прежнему за рулем машины. Видение? А может быть, предупреждение?
Однако теперь и Кимберли, и водители, чьи машины не смогли выехать из-за нее к своей смерти, обречены — старуха с косой отказывается вычеркивать их из своего списка…
Сэмпл: http://sendfile.su/1305291

Качество видео: BDRip-AVC (Пункт Назначения 2 2002 Blu-ray Disc 1080p] [CEE])
Формат видео: MKV
Видео: x264, 1024x576 (16:9) 23,976 fps, ~2567 kbps, 0,182 bit/pixel
Аудио 1: 48 kHz, AC3 Dolby Digital, 3/2 (L,C,R,l,r) + LFE ch, ~448 kbps | Дубляж, Blu-ray CEE
Аудио 2: 48 kHz, AC3 Dolby Digital, 3/2 (L,C,R,l,r) + LFE ch, ~448 kbps | Английский
---------------------------------------отдельно---------------------------------------------------
Аудио 3: 48 kHz, AC3 Dolby Digital, 3/2 (L,C,R,l,r) + LFE ch, ~448 kbps | Киномания
Аудио 4: 48 kHz, AC3 Dolby Digital, 3/2 (L,C,R,l,r) + LFE ch, ~448 kbps | Гаврилов
Аудио 5: 48 kHz, AC3 Dolby Digital, 3/2 (L,C,R,l,r) + LFE ch, ~448 kbps | Королев
Формат субтитров: softsub (SRT)

MediaInfo

General
Unique ID : 216362387988777217105880632072100034702 (0xA2C5E153E9E8937090AF61AD51FAB88E)
Format : Matroska
Format version : Version 4 / Version 2
File size : 2.18 GiB
Duration : 1h 30mn
Overall bit rate : 3 465 Kbps
Encoded date : UTC 2017-02-03 06:17:31
Writing application : mkvmerge v9.8.0 ('Kuglblids') 64bit
Writing library : libebml v1.3.4 + libmatroska v1.4.5
Cover : Yes
Attachments : cover.jpg / xlog.txt
Video #1
ID : 1
Format : AVC
Format/Info : Advanced Video Codec
Format profile : High@L4.1
Format settings, CABAC : Yes
Format settings, ReFrames : 10 frames
Codec ID : V_MPEG4/ISO/AVC
Duration : 1h 30mn
Bit rate : 2 567 Kbps
Width : 1 024 pixels
Height : 576 pixels
Display aspect ratio : 16:9
Frame rate mode : Constant
Frame rate : 23.976 (24000/1001) fps
Color space : YUV
Chroma subsampling : 4:2:0
Bit depth : 8 bits
Scan type : Progressive
Bits/(Pixel*Frame) : 0.182
Stream size : 1.62 GiB (74%)
Writing library : x264 core 146 r2538 121396c
Encoding settings : cabac=1 / ref=10 / deblock=1:-3:-2 / analyse=0x3:0x113 / me=umh / subme=10 / psy=1 / psy_rd=1.00:0.00 / mixed_ref=1 / me_range=32 / chroma_me=1 / trellis=2 / 8x8dct=1 / cqm=0 / deadzone=21,11 / fast_pskip=1 / chroma_qp_offset=-2 / threads=6 / lookahead_threads=1 / sliced_threads=0 / nr=0 / decimate=1 / interlaced=0 / bluray_compat=0 / constrained_intra=0 / bframes=11 / b_pyramid=2 / b_adapt=2 / b_bias=0 / direct=1 / weightb=1 / open_gop=0 / weightp=2 / keyint=250 / keyint_min=23 / scenecut=40 / intra_refresh=0 / rc_lookahead=50 / rc=2pass / mbtree=1 / bitrate=2567 / ratetol=1.0 / qcomp=0.60 / qpmin=0 / qpmax=69 / qpstep=4 / cplxblur=20.0 / qblur=0.5 / ip_ratio=1.40 / aq=3:1.00
Language : English
Default : Yes
Forced : No
Audio #2
ID : 2
Format : AC-3
Format/Info : Audio Coding 3
Mode extension : CM (complete main)
Format settings, Endianness : Big
Codec ID : A_AC3
Duration : 1h 30mn
Bit rate mode : Constant
Bit rate : 448 Kbps
Channel(s) : 6 channels
Channel positions : Front: L C R, Side: L R, LFE
Sampling rate : 48.0 KHz
Frame rate : 31.250 fps (1536 spf)
Compression mode : Lossy
Stream size : 289 MiB (13%)
Language : Russian
Default : Yes
Forced : No
Audio #3
ID : 3
Format : AC-3
Format/Info : Audio Coding 3
Mode extension : CM (complete main)
Format settings, Endianness : Big
Codec ID : A_AC3
Duration : 1h 30mn
Bit rate mode : Constant
Bit rate : 448 Kbps
Channel(s) : 6 channels
Channel positions : Front: L C R, Side: L R, LFE
Sampling rate : 48.0 KHz
Frame rate : 31.250 fps (1536 spf)
Compression mode : Lossy
Stream size : 289 MiB (13%)
Language : English
Default : No
Forced : No
Text #4
ID : 4
Format : UTF-8
Codec ID : S_TEXT/UTF8
Codec ID/Info : UTF-8 Plain Text
Duration : 1h 29mn
Bit rate : 83 bps
Count of elements : 942
Stream size : 54.9 KiB (0%)
Title : Blu-ray CEE
Language : Russian
Default : No
Forced : No
Text #5
ID : 5
Format : UTF-8
Codec ID : S_TEXT/UTF8
Codec ID/Info : UTF-8 Plain Text
Duration : 1h 24mn
Bit rate : 53 bps
Count of elements : 1060
Stream size : 33.4 KiB (0%)
Language : English
Default : No
Forced : No

лог

raw [info]: 1024x576p 1:1 @ 24000/1001 fps (cfr)
x264 [info]: using SAR=1/1
x264 [info]: using cpu capabilities: MMX2 SSE2Fast SSSE3 SSE4.2 AVX XOP FMA4 FMA3 LZCNT BMI1
x264 [info]: profile High, level 4.1
x264 [info]: frame I:1033 Avg QP:16.14 size: 75456
x264 [info]: frame P:30791 Avg QP:19.65 size: 24535
x264 [info]: frame B:97915 Avg QP:21.27 size: 9216
x264 [info]: consecutive B-frames: 3.5% 4.1% 11.8% 19.0% 15.0% 35.2% 4.8% 2.1% 1.5% 1.0% 1.0% 1.0%
x264 [info]: mb I I16..4: 5.6% 79.2% 15.2%
x264 [info]: mb P I16..4: 1.9% 13.2% 2.0% P16..4: 41.2% 24.4% 11.5% 0.0% 0.0% skip: 5.9%
x264 [info]: mb B I16..4: 0.1% 1.1% 0.2% B16..8: 44.8% 12.7% 2.8% direct: 5.3% skip:33.0% L0:45.1% L1:46.0% BI: 8.9%
x264 [info]: 8x8 transform intra:77.7% inter:72.2%
x264 [info]: coded y,uvDC,uvAC intra: 84.8% 71.6% 33.9% inter: 29.5% 19.1% 1.2%
x264 [info]: i16 v,h,dc,p: 31% 22% 4% 43%
x264 [info]: i8 v,h,dc,ddl,ddr,vr,hd,vl,hu: 9% 10% 4% 10% 15% 14% 15% 11% 12%
x264 [info]: i4 v,h,dc,ddl,ddr,vr,hd,vl,hu: 10% 10% 2% 9% 16% 15% 15% 11% 12%
x264 [info]: i8c dc,h,v,p: 34% 27% 20% 19%
x264 [info]: Weighted P-Frames: Y:4.9% UV:2.2%
x264 [info]: ref P L0: 45.1% 12.2% 17.6% 6.9% 5.5% 3.8% 3.3% 1.9% 1.8% 1.6% 0.4% 0.0%
x264 [info]: ref B L0: 69.2% 13.4% 6.8% 3.5% 2.5% 2.0% 1.6% 0.7% 0.3%
x264 [info]: ref B L1: 91.1% 8.9%
x264 [info]: kb/s:2566.20
x264 [total]: encoded 129739 frames, 7.32 fps, 2566.21 kb/s

Скриншоты


[Profile]  [PM] 
Display posts:    
Reply to topic

Current time is: 13-Aug 16:58

All times are UTC + 2



You cannot post new topics in this forum
You cannot reply to topics in this forum
You cannot edit your posts in this forum
You cannot delete your posts in this forum
You cannot vote in polls in this forum
You cannot attach files in this forum
You cannot download files in this forum