Девятая жизнь Луи Дракса / The 9th Life of Louis Drax (Александр Ажа / Alexandre Aja) [2016, Великобритания, Канада, США, триллер, детектив, BDRip-AVC] Dub + Original Eng + Sub Eng

Reply to topic
 
Author
Message

Satyr ®

Online

Gender: Unknown

Longevity: 10 years

Posts: 14651

Reputation: 54 [+] [-]

Satyr · Post 05-Feb-2017 13:00

[Quote] 

Девятая жизнь Луи Дракса / The 9th Life of Louis Drax- Страна: Великобритания, Канада, США
Жанр: триллер, детектив
Год выпуска: 2016
Продолжительность: 01:48:12
Перевод: Профессиональный (дублированный)
Cубтитры: английские
Оригинальная аудиодорожка: английский
Режиссер: Александр Ажа / Alexandre Aja
В ролях: Джейми Дорнан, Эйден Лонгуорт, Сара Гадон, Майкл Адамуэйт, Аарон Пол, Бэкхам Скойе, Адам Абрамс, Молли Паркер, Терри Чен, Рэнди Линн
Описание: Знаменитый психолог Аллан Паскаль пытается раскрыть тайны, которые хранит сознание 9-летнего Луи Дракса, впавшего в кому после таинственного несчастного случая. Влюбленный в мать мальчика доктор подозревает в случившемся отца. Но чем глубже он погружается в подсознание ребенка, тем сильнее размываются границы между мистикой и реальностью…
Сэмпл: http://sendfile.su/1305517

Качество видео: BDRip-AVC (THE_9TH_LIFE_OF_LOUIS_DRAX_REMUX_HDCLUB)
Формат видео: MKV
Видео: x264, 1152x482 (2.40:1) 23,976 fps, ~1885 kbps, 0,142 bit/pixel
Аудио 1: 48 kHz, AC3 Dolby Digital, 3/2 (L,C,R,l,r) + LFE ch, ~384 kbps [русский, iTunes Russia]
Аудио 2: 48 kHz, AC3 Dolby Digital, 3/2 (L,C,R,l,r) + LFE ch, ~448 kbps [английский]
Формат субтитров: softsub (SRT)

MediaInfo

General
Unique ID : 190645378796458211911683977542022582210 (0x8F6CF6E17F4A4C37879D75D26F55CFC2)
Format : Matroska
Format version : Version 4 / Version 2
File size : 2.05 GiB
Duration : 1h 48mn
Overall bit rate : 2 718 Kbps
Encoded date : UTC 2017-02-04 09:30:27
Writing application : mkvmerge v9.8.0 ('Kuglblids') 64bit
Writing library : libebml v1.3.4 + libmatroska v1.4.5
Video #1
ID : 1
Format : AVC
Format/Info : Advanced Video Codec
Format profile : High@L4.1
Format settings, CABAC : Yes
Format settings, ReFrames : 10 frames
Codec ID : V_MPEG4/ISO/AVC
Duration : 1h 48mn
Bit rate : 1 885 Kbps
Width : 1 152 pixels
Height : 482 pixels
Display aspect ratio : 2.40:1
Frame rate mode : Constant
Frame rate : 23.976 (24000/1001) fps
Color space : YUV
Chroma subsampling : 4:2:0
Bit depth : 8 bits
Scan type : Progressive
Bits/(Pixel*Frame) : 0.142
Stream size : 1.42 GiB (69%)
Writing library : x264 core 148 r2744 b97ae06
Encoding settings : cabac=1 / ref=10 / deblock=1:-3:-2 / analyse=0x3:0x133 / me=umh / subme=10 / psy=1 / psy_rd=1.00:0.00 / mixed_ref=1 / me_range=32 / chroma_me=1 / trellis=2 / 8x8dct=1 / cqm=0 / deadzone=21,11 / fast_pskip=1 / chroma_qp_offset=-2 / threads=6 / lookahead_threads=1 / sliced_threads=0 / nr=0 / decimate=1 / interlaced=0 / bluray_compat=0 / constrained_intra=0 / bframes=11 / b_pyramid=2 / b_adapt=2 / b_bias=0 / direct=1 / weightb=1 / open_gop=0 / weightp=2 / keyint=250 / keyint_min=23 / scenecut=40 / intra_refresh=0 / rc_lookahead=60 / rc=2pass / mbtree=1 / bitrate=1885 / ratetol=1.0 / qcomp=0.60 / qpmin=0 / qpmax=69 / qpstep=4 / cplxblur=20.0 / qblur=0.5 / ip_ratio=1.40 / aq=3:1.00
Language : English
Default : Yes
Forced : No
Audio #2
ID : 2
Format : AC-3
Format/Info : Audio Coding 3
Mode extension : CM (complete main)
Format settings, Endianness : Big
Codec ID : A_AC3
Duration : 1h 48mn
Bit rate mode : Constant
Bit rate : 384 Kbps
Channel(s) : 6 channels
Channel positions : Front: L C R, Side: L R, LFE
Sampling rate : 48.0 KHz
Frame rate : 31.250 fps (1536 spf)
Compression mode : Lossy
Stream size : 297 MiB (14%)
Language : Russian
Default : Yes
Forced : No
Audio #3
ID : 3
Format : AC-3
Format/Info : Audio Coding 3
Mode extension : CM (complete main)
Format settings, Endianness : Big
Codec ID : A_AC3
Duration : 1h 48mn
Bit rate mode : Constant
Bit rate : 448 Kbps
Channel(s) : 6 channels
Channel positions : Front: L C R, Side: L R, LFE
Sampling rate : 48.0 KHz
Frame rate : 31.250 fps (1536 spf)
Compression mode : Lossy
Stream size : 347 MiB (16%)
Language : English
Default : No
Forced : No
Text #4
ID : 4
Format : UTF-8
Codec ID : S_TEXT/UTF8
Codec ID/Info : UTF-8 Plain Text
Duration : 1h 47mn
Bit rate : 59 bps
Count of elements : 1453
Stream size : 47.0 KiB (0%)
Title : full
Language : English
Default : No
Forced : No
Text #5
ID : 5
Format : UTF-8
Codec ID : S_TEXT/UTF8
Codec ID/Info : UTF-8 Plain Text
Duration : 1h 47mn
Bit rate : 65 bps
Count of elements : 1552
Stream size : 51.5 KiB (0%)
Title : SDH
Language : English
Default : No
Forced : No

лог

raw [info]: 1152x482p 1:1 @ 24000/1001 fps (cfr)
x264 [info]: using SAR=1/1
x264 [info]: using cpu capabilities: MMX2 SSE2Fast SSSE3 SSE4.2 AVX XOP FMA4 FMA3 LZCNT BMI1
x264 [info]: profile High, level 4.1
x264 [info]: frame I:1290 Avg QP:14.70 size: 95960
x264 [info]: frame P:34963 Avg QP:18.24 size: 24835
x264 [info]: frame B:119411 Avg QP:22.33 size: 4492
x264 [info]: consecutive B-frames: 2.1% 3.4% 7.7% 30.0% 16.2% 27.1% 5.8% 5.0% 0.9% 0.4% 0.4% 1.0%
x264 [info]: mb I I16..4: 7.6% 68.2% 24.2%
x264 [info]: mb P I16..4: 0.8% 5.7% 1.4% P16..4: 39.4% 21.2% 17.7% 1.0% 0.4% skip:12.5%
x264 [info]: mb B I16..4: 0.0% 0.4% 0.1% B16..8: 40.3% 7.1% 1.7% direct: 2.5% skip:47.8% L0:42.9% L1:47.4% BI: 9.6%
x264 [info]: 8x8 transform intra:70.6% inter:62.7%
x264 [info]: coded y,uvDC,uvAC intra: 78.9% 75.9% 51.0% inter: 15.5% 10.5% 2.5%
x264 [info]: i16 v,h,dc,p: 41% 14% 7% 39%
x264 [info]: i8 v,h,dc,ddl,ddr,vr,hd,vl,hu: 20% 10% 7% 8% 11% 12% 11% 10% 11%
x264 [info]: i4 v,h,dc,ddl,ddr,vr,hd,vl,hu: 27% 7% 4% 8% 12% 11% 11% 9% 10%
x264 [info]: i8c dc,h,v,p: 37% 23% 23% 16%
x264 [info]: Weighted P-Frames: Y:3.2% UV:1.0%
x264 [info]: ref P L0: 50.9% 13.2% 14.6% 5.9% 4.5% 3.4% 2.9% 1.6% 1.5% 1.5% 0.1% 0.0%
x264 [info]: ref B L0: 78.4% 9.6% 4.8% 2.3% 1.7% 1.3% 1.1% 0.5% 0.3%
x264 [info]: ref B L1: 94.8% 5.2%
x264 [info]: kb/s:1883.44
x264 [total]: encoded 155664 frames, 10.30 fps, 1883.44 kb/s

Скриншоты


[Profile]  [PM] 
Display posts:    
Reply to topic

Current time is: 15-Dec 05:19

All times are UTC + 2



You cannot post new topics in this forum
You cannot reply to topics in this forum
You cannot edit your posts in this forum
You cannot delete your posts in this forum
You cannot vote in polls in this forum
You cannot attach files in this forum
You cannot download files in this forum