Танцовщица / La danseuse (Стефани Ди Джусто / Stéphanie Di Giusto) [2016, Франция, Бельгия, Чехия, Драма, биография, музыка, HDRip] MVO (iTunes)

Reply to topic
 
Author
Message

Satyr ®

Gender: Unknown

Longevity: 10 years

Posts: 14651

Reputation: 54 [+] [-]

Satyr · Post 05-Feb-2017 13:00

[Quote] 

Танцовщица / La danseuse

«История окрыляющей страсти к делу и губительной страсти к людям»
- Страна: Франция, Бельгия, Чехия
Жанр: Драма, биография, музыка
Год выпуска: 2016
Продолжительность: 01:52:00-Перевод: Профессиональный (многоголосый закадровый) iTunes
Cубтитры: нет-Режиссер: Стефани Ди Джусто / Stéphanie Di Giusto-В ролях: Стефани Соколински, Гаспар Ульель, Мелани Тьерри, Лили-Роуз Мелоди Депп, Франсуа Дамиенс, Луи-До де Ланкесэ, Аманда Пламмер, Дени Меноше, Чарли Морган, Тэмзин Мёрчант-Описание: Нью-Йорк, 1887 год молодая Мария-Луиза мечтает покорить Америку — стать великой актрисой. Во время выступления на сцене она путается в своем платье, но чудом избегает падения, продолжая кружиться в изящной ткани. Шокированные зрители становятся свидетелями исторического момента — так зародился модерн.
Мария-Луиза стала Лои Фуллер — электрической феей, иконой, пылающим символом поколения. Новая муза братьев Люмьер и Тулуз-Лотрека теперь еще и звезда известного в Париже кабаре, а её танец бабочки покажут в Гранд Опера. Но слава — это не все. Случайная встреча Лои Фуллер с юной Айседорой Дункан ставит под угрозу ее непростую любовь с покровителем и саму суть изобретенного ею нового направления искусства.- / -Качество видео: HDRip
Формат видео: AVI
Видео: 720x304 (2.35:1), 23.976 fps, XviD build 73, 1 473 Kbps, 0.28 bit/pixel
Аудио: 48 kHz, AC3 Dolby Digital, 3/2 (L,C,R,l,r) + LFE ch, 384 Kbps

MediaInfo

General
Complete name : Downloads\La.Danseuse.2016.HDRip
Format : AVI
Format/Info : Audio Video Interleave
File size : 1.46 GiB
Duration : 1h 52mn
Overall bit rate : 1 864 Kbps
Video #0
ID : 0
Format : MPEG-4 Visual
Format profile : Advanced Simple@L5
Format settings, BVOP : 1
Format settings, QPel : No
Format settings, GMC : No warppoints
Format settings, Matrix : Custom
Codec ID : XVID
Codec ID/Hint : XviD
Duration : 1h 52mn
Bit rate : 1 473 Kbps
Width : 720 pixels
Height : 304 pixels
Display aspect ratio : 2.35:1
Frame rate : 23.976 fps
Color space : YUV
Chroma subsampling : 4:2:0
Bit depth : 8 bits
Scan type : Progressive
Compression mode : Lossy
Bits/(Pixel*Frame) : 0.281
Stream size : 1.15 GiB (79%)
Writing library : XviD 73
Audio #1
ID : 1
Format : AC-3
Format/Info : Audio Coding 3
Mode extension : CM (complete main)
Format settings, Endianness : Big
Codec ID : 2000
Duration : 1h 51mn
Bit rate mode : Constant
Bit rate : 384 Kbps
Channel(s) : 6 channels
Channel positions : Front: L C R, Side: L R, LFE
Sampling rate : 48.0 KHz
Bit depth : 16 bits
Compression mode : Lossy
Stream size : 308 MiB (21%)
Alignment : Aligned on interleaves
Interleave, duration : 64 ms (1.53 video frames)
Interleave, preload duration : 192 ms
Title : iTunes

Скриншот c названием фильма

Скриншоты

[Profile]  [PM] 
Display posts:    
Reply to topic

Current time is: 15-Dec 13:12

All times are UTC + 2



You cannot post new topics in this forum
You cannot reply to topics in this forum
You cannot edit your posts in this forum
You cannot delete your posts in this forum
You cannot vote in polls in this forum
You cannot attach files in this forum
You cannot download files in this forum