Спрятанные / Hidden (Мэтт Даффер / Matt Duffer / Росс Даффер / Ross Duffer) [2015, США, ужасы, триллер, WEB-DLRip] MVO (ViruseProject)

Reply to topic
 
Author
Message

Satyr ®

Gender: Unknown

Longevity: 10 years

Posts: 14651

Reputation: 54 [+] [-]

Satyr · Post 05-Feb-2017 17:05

[Quote] 

Спрятанные | Hidden
Страна: США
Жанр: ужасы, триллер
Год выпуска: 2015
Продолжительность: 01:23:13
Перевод: Любительский (многоголосый закадровый) ViruseProject
Cубтитры: нет
Оригинальная аудиодорожка: нет
Режиссер: Мэтт Даффер / Matt Duffer / Росс Даффер / Ross Duffer
В ролях: Александр Скарсгард, Андреа Райзборо, Эмили Элин Линд, Хезер Дорксен, Уильям Энскау
Описание: Рэй, Клэр и их семилетняя дочь Зои — обычная американская семья, живущая в Кингсвилле, Северная Каролина, — вот только живут они в бомбоубежище с тех самых пор, как наступил конец света, который изменил все.
За 301 день они превратили свою бетонную темницу в дом, держась за воспоминания о прошлом и надеясь когда-нибудь вернуться к нормальной жизни. 301 день им удавалось избегать того, что обитает на поверхности, — тяжелое дыхание, грохочущие шаги, раздающиеся в ночи, внушают страх находящимся в хрупком убежище.
Все это время семье удавалось оставаться незамеченной. До сих пор. Сейчас их безопасность под угрозой… и нечто идет за ними.

Качество видео: WEB-DLRip
Формат видео: AVI
Видео: 720x400 (16:9), 23.976 fps, XviD build 50 ~2250 kbps avg, 0.33 bit/pixel
Аудио: AC-3, 2 ch, ~192.00 kbps avg

MediaInfo

General
Complete name : E:\Hidden.2015.400p.WEB-DL.ViruseProject.avi
Format : AVI
Format/Info : Audio Video Interleave
File size : 1.42 GiB
Duration : 1 h 23 min
Overall bit rate : 2 452 kb/s
Writing application : VirtualDubMod 1.5.10.2 (build 2540/release)
Writing library : VirtualDubMod build 2540/release
Video
ID : 0
Format : MPEG-4 Visual
Format profile : Advanced Simple@L5
Format settings, BVOP : 1
Format settings, QPel : No
Format settings, GMC : No warppoints
Format settings, Matrix : Default (MPEG)
Codec ID : XVID
Codec ID/Hint : XviD
Duration : 1 h 23 min
Bit rate : 2 251 kb/s
Width : 720 pixels
Height : 400 pixels
Display aspect ratio : 16:9
Frame rate : 23.976 (24000/1001) FPS
Color space : YUV
Chroma subsampling : 4:2:0
Bit depth : 8 bits
Scan type : Progressive
Compression mode : Lossy
Bits/(Pixel*Frame) : 0.326
Stream size : 1.31 GiB (92%)
Writing library : XviD 1.2.1 (UTC 2008-12-04)
Audio
ID : 1
Format : AC-3
Format/Info : Audio Coding 3
Mode extension : CM (complete main)
Format settings, Endianness : Big
Codec ID : 2000
Duration : 1 h 23 min
Bit rate mode : Constant
Bit rate : 192 kb/s
Channel(s) : 2 channels
Channel positions : Front: L R
Sampling rate : 48.0 kHz
Frame rate : 31.250 FPS (1536 spf)
Bit depth : 16 bits
Compression mode : Lossy
Stream size : 114 MiB (8%)
Alignment : Split accross interleaves
Interleave, duration : 42 ms (1.00 video frame)
Interleave, preload duratio : 500 ms

Скриншоты

[Profile]  [PM] 
Display posts:    
Reply to topic

Current time is: 15-Dec 11:46

All times are UTC + 2



You cannot post new topics in this forum
You cannot reply to topics in this forum
You cannot edit your posts in this forum
You cannot delete your posts in this forum
You cannot vote in polls in this forum
You cannot attach files in this forum
You cannot download files in this forum