Макс Стил / Max Steel (Стюарт Хендлер / Stewart Hendler) [2016, Великобритания, США, фантастика, боевик, приключения, BDRip] Dub (iTunes)

Reply to topic
 
Author
Message

Satyr ®

Gender: Unknown

Longevity: 11 years

Posts: 15401

Reputation: 55 [+] [-]

Satyr · Post 05-Feb-2017 17:05

[Quote] 

Макс Стил / Max Steel
- Страна: Великобритания, США
Жанр: фантастика, боевик, приключения
Год выпуска: 2016
Продолжительность: 01:32:27
-Перевод: Профессиональный (дублированный) iTunes
Cубтитры: нет-Режиссер: Стюарт Хендлер / Stewart Hendler-В ролях: Бен Уинчелл (Max McGrath), Джош Бренер (Steel, озвучка), Мария Белло (Molly McGrath), Энди Гарсиа (Dr. Miles Edwards), Ана Виллафейн (Sofia Martinez), Майк Дойл (Jim McGrath), Филлип ДеВона (Harkins), Билли Слотер (Murphy), Эл Митчелл (Dr. Smith), Лоуренс Као (Dr. Lee), Бретт Джентиле (Mr. Quinn), Джани Уоллес (Student / Thirsty Kid)-Описание: Когда подросток Макс МакГрат обнаруживает, что его тело может генерировать наиболее мощную энергию во Вселенной, ему приходится встретиться с единственным существом, способным совладать с такой энергией — таинственным техноорганическим инопланетянином по имени Стил.- / / -Качество видео: BDRip | исх. Max.Steel.2016.1080p.BluRay.REMUX.AVC.DTS-HD.MA.5.1-FGT |
Формат видео: AVI
Видео: 720x304 (2.35:1), 23.976 fps, XviD build 73, 1804 Kbps, 0.34 bit/pixel
Аудио: 48 kHz, AC3 Dolby Digital, 3/2 (L,C,R,l,r) + LFE ch, 384 Kbps-Автор релиза: Релиз: -

MediaInfo

General
Complete name : Downloads\Max.Steel.2016.D.BDRip_ExKinoRay_by_Twi7ter.avi
Format : AVI
Format/Info : Audio Video Interleave
File size : 1.42 GiB
Duration : 1h 32mn
Overall bit rate : 2 197 Kbps
Video #0
ID : 0
Format : MPEG-4 Visual
Format profile : Advanced Simple@L5
Format settings, BVOP : 2
Format settings, QPel : No
Format settings, GMC : No warppoints
Format settings, Matrix : Custom
Codec ID : XVID
Codec ID/Hint : XviD
Duration : 1h 32mn
Bit rate : 1 804 Kbps
Width : 720 pixels
Height : 304 pixels
Display aspect ratio : 2.35:1
Frame rate : 23.976 fps
Color space : YUV
Chroma subsampling : 4:2:0
Bit depth : 8 bits
Scan type : Progressive
Compression mode : Lossy
Bits/(Pixel*Frame) : 0.344
Stream size : 1.17 GiB (82%)
Writing library : XviD 73
Audio #1
ID : 1
Format : AC-3
Format/Info : Audio Coding 3
Mode extension : CM (complete main)
Format settings, Endianness : Big
Codec ID : 2000
Duration : 1h 32mn
Bit rate mode : Constant
Bit rate : 384 Kbps
Channel(s) : 6 channels
Channel positions : Front: L C R, Side: L R, LFE
Sampling rate : 48.0 KHz
Bit depth : 16 bits
Compression mode : Lossy
Stream size : 254 MiB (17%)
Alignment : Split accross interleaves
Interleave, duration : 42 ms (1.00 video frame)
Interleave, preload duration : 500 ms

Скриншот c названием фильма

Скриншоты

[Profile]  [PM] 
Display posts:    
Reply to topic

Current time is: 13-Aug 15:29

All times are UTC + 2



You cannot post new topics in this forum
You cannot reply to topics in this forum
You cannot edit your posts in this forum
You cannot delete your posts in this forum
You cannot vote in polls in this forum
You cannot attach files in this forum
You cannot download files in this forum