Запорошенные пеплом / Pelnu sanatorija (Давис Симанис мл. / Davis Simanis Jr.) [2016, Латвия, Военный, драма, HDTVRip] VO (datynet; перевод: Куценко)

Reply to topic
 
Author
Message

Satyr ®

Gender: Unknown

Longevity: 10 years

Posts: 14656

Reputation: 54 [+] [-]

Satyr · Post 05-Feb-2017 17:05

[Quote] 

Запорошенные пеплом / Pelnu sanatorija Страна: Латвия
Жанр: Военный, драма
Год выпуска: 2016
Продолжительность: 01:40:39
Перевод: Одноголосый закадровый datynet; перевод: Куценко
Cубтитры: нет
Оригинальная аудиодорожка: нет
Режиссер: Давис Симанис мл. / Davis Simanis Jr.
В ролях: Ульрих Маттес, Агнесе Цируле, Дмитрий Ялдов, Леонид Ленц, Петерис Лиепиньш, Томс Лиепайниекс, Марина Янаус
Описание: Действие фильма разворачивается в 1917 году в Курземе. В последние дни войны отставного немецкого врача Ульриха направляют в укромный санаторий, где лечатся контуженные и психически травмированные солдаты. Ульриху открывается странный, иррациональный мир, в котором царят покой и забвение. Этот мир оказывается испытанием для его рационального ума и решимости навести в нем порядок. Неожиданно возникшая привязанность ко всеми оставленному, одичавшему мальчику позволяет Ульриху возродить в себе человечность. Однако война еще не кончилась – рано или поздно она достигнет и этого убежища.
Доп. информация: "Запорошенные пеплом" – так называется фильм, взявший главный приз Третьего Международного кинофестиваля в Риге. Его режиссер – латвиец Давис Симанис. Он рассказал о судьбах и событиях Первой мировой. Награду автору вручали со словами: "За более чем 100 лет человек так не смог понять, чего стоит его жизнь".
Сэмпл: http://multi-up.com/1138968
Качество видео: HDTVRip
Формат видео: MKV
Видео: 720х304(2,35:1), 25,000 fps, MPEGH HEVC (x265), Main@L2.1@Main~651 kbps avg, 0.119 bit/pixel
Аудио: 48 kHz, MPEG Layer 3, 2 channel (stereo),~192 kbps avg

MediaInfo

Общее
Уникальный идентификатор : 241890033031696548080023807601124697440 (0xB5FA5366BDBED93C9E3C400C05BDE560)
Полное имя : E:\Pelnu sanatorija.2016.HDTV.x265\Pelnu sanatorija.mkv
Формат : Matroska
Версия формата : Version 4 / Version 2
Размер файла : 608 Мбайт
Продолжительность : 1 ч. 40 м.
Общий поток : 844 Кбит/сек
Дата кодирования : UTC 2017-01-18 11:15:27
Программа кодирования : mkvmerge v9.6.0 ('Slave To Your Mind') 64bit
Библиотека кодирования : libebml v1.3.4 + libmatroska v1.4.5
Видео
Идентификатор : 1
Формат : HEVC
Формат/Информация : High Efficiency Video Coding
Профиль формата : Main@L2.1@Main
Идентификатор кодека : V_MPEGH/ISO/HEVC
Продолжительность : 1 ч. 40 м.
Битрейт : 651 Кбит/сек
Ширина : 720 пикселей
Высота : 304 пикселя
Соотношение сторон : 2,35:1
Режим частоты кадров : Постоянный
Частота кадров : 25,000 кадров/сек
Цветовое пространство : YUV
Субдискретизация насыщенности : 4:2:0
Битовая глубина : 8 бит
Бит/(Пиксели*Кадры) : 0.119
Размер потока : 469 Мбайт (77%)
Библиотека кодирования : x265 1.9:[Windows][GCC 4.9.0][64 bit] 8bit
Default : Да
Forced : Нет
Цветовой диапазон : Limited
Основные цвета : BT.709
Характеристики трансфера : BT.709
Коэффициенты матрицы : BT.709
Аудио
Идентификатор : 2
Формат : MPEG Audio
Версия формата : Version 1
Профиль формата : Layer 3
Идентификатор кодека : A_MPEG/L3
Идентификатор кодека/Подсказка : MP3
Продолжительность : 1 ч. 40 м.
Вид битрейта : Постоянный
Битрейт : 192 Кбит/сек
Каналы : 2 канала
Частота : 48,0 КГц
Частота кадров : 41,667 кадра/сек (1152 spf)
Метод сжатия : С потерями
Задержка видео : -80 мс.
Размер потока : 138 Мбайт (23%)
Default : Да
Forced : Нет

Скриншот c названием фильма

Скриншоты

[Profile]  [PM] 
Display posts:    
Reply to topic

Current time is: 16-Dec 08:58

All times are UTC + 2



You cannot post new topics in this forum
You cannot reply to topics in this forum
You cannot edit your posts in this forum
You cannot delete your posts in this forum
You cannot vote in polls in this forum
You cannot attach files in this forum
You cannot download files in this forum