Флоренс Фостер Дженкинс / Florence Foster Jenkins (Стивен Фрирз / Stephen Frears) [2016, Великобритания, драма, мелодрама, комедия, биография, BDRip 720p] MVO + Sub Eng + Original Eng

Reply to topic
 
Author
Message

Faust ®

Gender: Unknown

Longevity: 8 years 2 months

Posts: 13753

Reputation: 0 [+] [-]

Faust · Post 05-Feb-2017 21:10

[Quote] 

Флоренс Фостер Дженкинс / Florence Foster Jenkins
Страна: Великобритания
Жанр: драма, мелодрама, комедия, биография
Год выпуска: 2016
Продолжительность: 01:50:12
Перевод: Любительский (многоголосый закадровый)
Cубтитры: английские
Оригинальная аудиодорожка: английский
Режиссер: Стивен Фрирз/Stephen Frears
В ролях: Мэрил Стрип
Хью Грант
Саймон Хелберг
Ребекка Фергюсон
Нина Арианда
Стэнли Таунсенд
Аллан Кордунер
Кристиан МакКэй
Описание: История Флоренс Фостер Дженкинс, девушки из богатой нью-йоркской семьи, которая мечтала стать оперной певицей, несмотря на то, что имела ужасный голос.
Доп. информация: Качество русской дорожки оставляет желать лучшего(кто-то применил компрессор), но другого пока нет. Реклама убрана, звук с трудом отсинхронен с рипом, найденным в сети.
Сэмпл: http://multi-up.com/1138198
Качество видео: BDRip
Формат видео: MKV
Видео: MPEG-4 AVC; 4 168 kb/s; 1280x536;(2.40:1); 24.000 FPS
Аудио: AAC;48.0 kHz;125 kb/s(2 ch); РУССКИЙ
Аудио 2: DTS, 48 kHz(24 bit); 1509 kbps(6ch); АНГЛИЙСКИЙ
Формат субтитров: softsub (SRT)

MediaInfo

General
Unique ID : 196612433292516644568341162387171295174 (0x93EA2D61AD6D35BC953BBB910671BFC6)
Complete name : D:\Florence.Foster.Jenkins.2016.720p RUS.mkv
Format : Matroska
Format version : Version 4 / Version 2
File size : 4.47 GiB
Duration : 1 h 50 min
Overall bit rate : 5 803 kb/s
Encoded date : UTC 2017-01-30 22:35:29
Writing application : mkvmerge v9.4.0 ('Knurl') 64bit
Writing library : libebml v1.3.4 + libmatroska v1.4.5
Video
ID : 1
Format : AVC
Format/Info : Advanced Video Codec
Format profile : High@L4.1
Format settings, CABAC : Yes
Format settings, ReFrames : 5 frames
Codec ID : V_MPEG4/ISO/AVC
Duration : 1 h 50 min
Bit rate : 4 168 kb/s
Width : 1 280 pixels
Height : 536 pixels
Display aspect ratio : 2.40:1
Frame rate mode : Constant
Frame rate : 24.000 FPS
Color space : YUV
Chroma subsampling : 4:2:0
Bit depth : 8 bits
Scan type : Progressive
Bits/(Pixel*Frame) : 0.253
Stream size : 3.21 GiB (72%)
Writing library : x264 core 148 r2705 3f5ed56
Encoding settings : cabac=1 / ref=5 / deblock=1:-3:-3 / analyse=0x3:0x113 / me=umh / subme=8 / psy=1 / psy_rd=1.00:0.00 / mixed_ref=1 / me_range=16 / chroma_me=1 / trellis=1 / 8x8dct=1 / cqm=0 / deadzone=21,11 / fast_pskip=1 / chroma_qp_offset=-2 / threads=17 / lookahead_threads=2 / sliced_threads=0 / nr=0 / decimate=1 / interlaced=0 / bluray_compat=0 / constrained_intra=0 / bframes=3 / b_pyramid=2 / b_adapt=2 / b_bias=0 / direct=3 / weightb=1 / open_gop=0 / weightp=2 / keyint=240 / keyint_min=24 / scenecut=40 / intra_refresh=0 / rc_lookahead=50 / rc=2pass / mbtree=1 / bitrate=4168 / ratetol=1.0 / qcomp=0.60 / qpmin=0 / qpmax=69 / qpstep=4 / cplxblur=20.0 / qblur=0.5 / ip_ratio=1.40 / aq=3:0.80
Default : Yes
Forced : No
Audio #1
ID : 2
Format : AAC
Format/Info : Advanced Audio Codec
Format profile : LC
Codec ID : A_AAC
Duration : 1 h 48 min
Bit rate : 125 kb/s
Channel(s) : 2 channels
Channel positions : Front: L R
Sampling rate : 48.0 kHz
Frame rate : 46.875 FPS (1024 spf)
Compression mode : Lossy
Stream size : 97.2 MiB (2%)
Title : RUS
Language : Russian
Default : No
Forced : No
Audio #2
ID : 3
Format : DTS
Format/Info : Digital Theater Systems
Mode : 16
Format settings, Endianness : Big
Codec ID : A_DTS
Duration : 1 h 50 min
Bit rate mode : Constant
Bit rate : 1 509 kb/s
Channel(s) : 6 channels
Channel positions : Front: L C R, Side: L R, LFE
Sampling rate : 48.0 kHz
Frame rate : 93.750 FPS (512 spf)
Bit depth : 24 bits
Compression mode : Lossy
Stream size : 1.16 GiB (26%)
Title : ENG
Language : English
Default : Yes
Forced : No
Text
ID : 4
Format : UTF-8
Codec ID : S_TEXT/UTF8
Codec ID/Info : UTF-8 Plain Text
Duration : 1 h 43 min
Bit rate : 65 b/s
Count of elements : 1375
Stream size : 49.7 KiB (0%)
Language : English
Default : No
Forced : No
Menu
00:00:00.000 : en:00:00:00.000
00:09:05.042 : en:00:09:05.042
00:20:49.750 : en:00:20:49.750
00:28:58.792 : en:00:28:58.792
00:37:58.167 : en:00:37:58.167
00:46:27.333 : en:00:46:27.333
00:56:35.500 : en:00:56:35.500
01:06:49.125 : en:01:06:49.125
01:14:43.000 : en:01:14:43.000
01:21:12.750 : en:01:21:12.750
01:30:33.667 : en:01:30:33.667
01:43:45.458 : en:01:43:45.458

Скриншот c названием фильма

[Profile]  [PM] 
Display posts:    
Reply to topic

Current time is: 16-Dec 10:00

All times are UTC + 2



You cannot post new topics in this forum
You cannot reply to topics in this forum
You cannot edit your posts in this forum
You cannot delete your posts in this forum
You cannot vote in polls in this forum
You cannot attach files in this forum
You cannot download files in this forum