Лучшие из лучших 2 / Best of the Best 2 (Роберт Рэдлер / Robert Radler) [1993, США, боевик, BDRemux 1080i] 3x MVO + VO (НТВ)+ 4x AVO + Sub Eng + Original Eng

Reply to topic
 
Author
Message

Faust ®

Gender: Unknown

Longevity: 8 years 2 months

Posts: 13739

Reputation: 0 [+] [-]

Faust · Post 05-Feb-2017 21:10

[Quote] 

Лучшие из лучших 2 / Best of the Best 2
Страна: США
Жанр: боевик
Год выпуска: 1993
Продолжительность: 01:37:36
Перевод:
1: Профессиональный (многоголосый закадровый) - REN-TV / Россия 2
2: Профессиональный (многоголосый закадровый) - ТНТ / ДТВ-Перец
3: Профессиональный (многоголосый закадровый) - R5
4: Студийный (одноголосый закадровый) - НТВ
5: Авторский (одноголосый закадровый) - Гаврилов
6: Авторский (одноголосый закадровый) - Горчаков
7: Авторский (одноголосый закадровый) - Визгунов
8: Авторский (одноголосый закадровый) - Володарский
Cубтитры: английские
Навигация по главам: нет
Режиссер: Роберт Рэдлер / Robert Radler
В ролях: Эрик Робертс, Филлип Ри, Крис Пенн, Эдан Гросс, Ральф Мёллер, Уэйн Ньютон, Николас Уорт
Описание: Чтобы стать чемпионами, члены американской команды по каратэ должны, преодолеть личные препятствия, проблемы.
Алекс, Томми и Трэвис попадают в трагические ситуации, и только преданность друг другу — своего рода семейственность — позволяют им стать триумфаторами Лас-Вегаса. Однако жестокое убийство одного из друзей побуждает оставшихся проявить боеспособность не только в спорте.
Доп. информация:
Сэмпл: http://sendfile.su/1301511
Качество: BDRemux 1080i
Контейнер: MKV
Видео: AVC 1920x1080, (1.78:1), 25 fps, 28400 Kbps
Аудио №1: Rus; AC3 2.0; 192 Kbps; 48 kHz; MVO REN-TV / Россия 2
Аудио №2: Rus; AC3 2.0; 192 Kbps; 48 kHz; MVO ТНТ / ДТВ-Перец
Аудио №3: Rus; AC3 2.0; 192 Kbps; 48 kHz; MVO R5
Аудио №4: Rus; AC3 2.0; 192 Kbps; 48 kHz; VO НТВ
Аудио №5: Rus; AC3 2.0; 192 Kbps; 48 kHz; AVO Гаврилов
Аудио №6: Rus; AC3 2.0; 192 Kbps; 48 kHz; AVO Горчаков
Аудио №7: Rus; AC3 2.0; 192 Kbps; 48 kHz; AVO Визгунов
Аудио №8: Rus; AC3 2.0; 192 Kbps; 48 kHz; AVO Володарский
Аудио №9: English: DTS-HD MA 2.0 48 kHz 1628 kbps 16-bit (DTS Core: 2.0 / 48 kHz / 1509 kbps / 16-bit)
Субтитры №1: Eng; английские, SRT

MediaInfo

General
Unique ID : 213188185860919828999198474631538999455 (0xA0628D147DA060B59D32BA47118B009F)
Complete name : D:\FINAL\Best of the Best 2.mkv
Format : Matroska
Format version : Version 2
File size : 21.3 GiB
Duration : 1h 37mn
Overall bit rate mode : Variable
Overall bit rate : 31.2 Mbps
Encoded date : UTC 2017-01-22 19:42:44
Writing application : mkvmerge v5.0.1 ('Es ist Sommer') built on Oct 9 2011 11:55:43
Writing library : libebml v1.2.2 + libmatroska v1.3.0
Video
ID : 1
Format : AVC
Format/Info : Advanced Video Codec
Format profile : High@L4.1
Format settings, CABAC : Yes
Format settings, ReFrames : 3 frames
Format settings, GOP : M=3, N=12
Codec ID : V_MPEG4/ISO/AVC
Duration : 1h 37mn
Bit rate mode : Variable
Maximum bit rate : 35.0 Mbps
Width : 1 920 pixels
Height : 1 080 pixels
Display aspect ratio : 16:9
Frame rate mode : Constant
Frame rate : 25.000 fps
Standard : NTSC
Color space : YUV
Chroma subsampling : 4:2:0
Bit depth : 8 bits
Scan type : Interlaced
Scan type, store method : Separated fields
Scan order : Top Field First
Default : Yes
Forced : No
Color range : Limited
Color primaries : BT.709
Transfer characteristics : BT.709
Matrix coefficients : BT.709
Audio #1
ID : 2
Format : AC-3
Format/Info : Audio Coding 3
Mode extension : CM (complete main)
Format settings, Endianness : Big
Codec ID : A_AC3
Duration : 1h 37mn
Bit rate mode : Constant
Bit rate : 192 Kbps
Channel(s) : 2 channels
Channel positions : Front: L R
Sampling rate : 48.0 KHz
Frame rate : 31.250 fps (1536 spf)
Compression mode : Lossy
Stream size : 134 MiB (1%)
Title : MVO REN
Language : Russian
Default : Yes
Forced : No
Audio #2
ID : 3
Format : AC-3
Format/Info : Audio Coding 3
Mode extension : CM (complete main)
Format settings, Endianness : Big
Codec ID : A_AC3
Duration : 1h 37mn
Bit rate mode : Constant
Bit rate : 192 Kbps
Channel(s) : 2 channels
Channel positions : Front: L R
Sampling rate : 48.0 KHz
Frame rate : 31.250 fps (1536 spf)
Compression mode : Lossy
Stream size : 134 MiB (1%)
Title : MVO TNT
Language : Russian
Default : No
Forced : No
Audio #3
ID : 4
Format : AC-3
Format/Info : Audio Coding 3
Mode extension : CM (complete main)
Format settings, Endianness : Big
Codec ID : A_AC3
Duration : 1h 37mn
Bit rate mode : Constant
Bit rate : 192 Kbps
Channel(s) : 2 channels
Channel positions : Front: L R
Sampling rate : 48.0 KHz
Frame rate : 31.250 fps (1536 spf)
Compression mode : Lossy
Stream size : 134 MiB (1%)
Title : MVO R5
Language : Russian
Default : No
Forced : No
Audio #4
ID : 5
Format : AC-3
Format/Info : Audio Coding 3
Mode extension : CM (complete main)
Format settings, Endianness : Big
Codec ID : A_AC3
Duration : 1h 37mn
Bit rate mode : Constant
Bit rate : 192 Kbps
Channel(s) : 2 channels
Channel positions : Front: L R
Sampling rate : 48.0 KHz
Frame rate : 31.250 fps (1536 spf)
Compression mode : Lossy
Stream size : 134 MiB (1%)
Title : VO NTV
Language : Russian
Default : No
Forced : No
Audio #5
ID : 6
Format : AC-3
Format/Info : Audio Coding 3
Mode extension : CM (complete main)
Format settings, Endianness : Big
Codec ID : A_AC3
Duration : 1h 37mn
Bit rate mode : Constant
Bit rate : 192 Kbps
Channel(s) : 2 channels
Channel positions : Front: L R
Sampling rate : 48.0 KHz
Frame rate : 31.250 fps (1536 spf)
Compression mode : Lossy
Stream size : 134 MiB (1%)
Title : AVO GAVRILOV
Language : Russian
Default : No
Forced : No
Audio #6
ID : 7
Format : AC-3
Format/Info : Audio Coding 3
Mode extension : CM (complete main)
Format settings, Endianness : Big
Codec ID : A_AC3
Duration : 1h 37mn
Bit rate mode : Constant
Bit rate : 192 Kbps
Channel(s) : 2 channels
Channel positions : Front: L R
Sampling rate : 48.0 KHz
Frame rate : 31.250 fps (1536 spf)
Compression mode : Lossy
Stream size : 134 MiB (1%)
Title : AVO GORCHAKOV
Language : Russian
Default : No
Forced : No
Audio #7
ID : 8
Format : AC-3
Format/Info : Audio Coding 3
Mode extension : CM (complete main)
Format settings, Endianness : Big
Codec ID : A_AC3
Duration : 1h 37mn
Bit rate mode : Constant
Bit rate : 192 Kbps
Channel(s) : 2 channels
Channel positions : Front: L R
Sampling rate : 48.0 KHz
Frame rate : 31.250 fps (1536 spf)
Compression mode : Lossy
Stream size : 134 MiB (1%)
Title : AVO VIZGUNOV
Language : Russian
Default : No
Forced : No
Audio #8
ID : 9
Format : AC-3
Format/Info : Audio Coding 3
Mode extension : CM (complete main)
Format settings, Endianness : Big
Codec ID : A_AC3
Duration : 1h 37mn
Bit rate mode : Constant
Bit rate : 192 Kbps
Channel(s) : 2 channels
Channel positions : Front: L R
Sampling rate : 48.0 KHz
Frame rate : 31.250 fps (1536 spf)
Compression mode : Lossy
Stream size : 134 MiB (1%)
Title : AVO VOLODARSKI
Language : Russian
Default : No
Forced : No
Audio #9
ID : 10
Format : DTS
Format/Info : Digital Theater Systems
Format profile : MA / Core
Mode : 16
Format settings, Endianness : Big
Codec ID : A_DTS
Duration : 1h 37mn
Bit rate mode : Variable / Constant
Bit rate : Unknown / 1 509 Kbps
Channel(s) : 2 channels
Channel positions : Front: L R
Sampling rate : 48.0 KHz
Frame rate : 93.750 fps (512 spf)
Bit depth : 16 bits
Compression mode : Lossless / Lossy
Language : English
Default : No
Forced : No
Text
ID : 11
Format : UTF-8
Codec ID : S_TEXT/UTF8
Codec ID/Info : UTF-8 Plain Text
Title : Eng
Language : English
Default : No
Forced : No

Скриншоты

[Profile]  [PM] 
Display posts:    
Reply to topic

Current time is: 15-Dec 04:51

All times are UTC + 2



You cannot post new topics in this forum
You cannot reply to topics in this forum
You cannot edit your posts in this forum
You cannot delete your posts in this forum
You cannot vote in polls in this forum
You cannot attach files in this forum
You cannot download files in this forum