Школьный призрак / Das Schulgespenst (Рольф Лозанский / Rolf Losansky) [1986, Германия, сесмейный, DVD5 (Custom)] Dub ((к/ст им. М. Горького)) + Original Ger

Reply to topic
 
Author
Message

Faust ®

Gender: Unknown

Longevity: 8 years 2 months

Posts: 13753

Reputation: 0 [+] [-]

Faust · Post 06-Feb-2017 01:15

[Quote] 

Школьный призрак / Das Schulgespenst
Страна: Германия
Студия: Киностудия Дефа
Жанр: сесмейный
Год выпуска: 1986
Продолжительность: 01:21:11
Перевод: Профессиональный (дублированный) (к/ст им. М. Горького)
Cубтитры: нет
Оригинальная аудиодорожка: немецкий
Режиссер: Рольф Лозанский / Rolf Losansky
В ролях: Николе Лихтенхельдт, Рикардо Рот, Карин Дювель, Барбара Диттус, Дитмар Рихтер-Райник, Рольф Людвиг, Вальфриде Шмитт, Гюнтер Шуберт, Рут Коммерель, Йёрг Панкнин...
Описание: Кто опять пришёл в школу растрёпанной и несобранной? Карола. Кто беззастенчиво списывает домашнее задание? Карола. Кто ни минуты не сидит спокойно, доставляет всем массу хлопот? Карола. Только ей могла прийти в голову подобная фантазия: заключить деловое соглашение с одним знакомым… призраком. Призрак прилежно учил уроки, а Карола, став невидимой, лихо скакала по крышам…
Доп. информация: СБОРКА НОРДЕРА
Релиз:


Меню: есть , озвученое , анимированое
Тип релиза: DVD5 (Custom)
Контейнер: DVD-Video
Видео: PAL 4:3 (720x576) VBR
Аудио: AC3, 2/0 (L,R) ch, 192 kbps, Delay 0 mSec (RUS)
Аудио 2: AC3, 2/0 (L,R) ch, 448 kbps, Delay 0 mSec (Deu)

MediaInfo

Общее
Полное имя : F:\МОИ ВИДЕО ЗАПИСИ DViX, AVi, MPG4\DVD ПЕРЕВЕДЕННЫЕ НА РУССКИЙ\Школьный призрак Das Schulgespenst (1986) ГДР DVD-5\Das Schulgespenst DVD-5\VIDEO_TS\VTS_01_2.VOB
Формат : MPEG-PS
Размер файла : 1024 Мбайт
Продолжительность : 22 м.
Режим общего битрейта : Переменный
Общий поток : 6253 Кбит/сек
Видео
Идентификатор : 224 (0xE0)
Формат : MPEG Video
Версия формата : Version 2
Профиль формата : Main@Main
Параметр BVOP формата : Да
Параметр матрицы формата : По умолчанию
Параметр GOP формата : M=3, N=12
Продолжительность : 22 м.
Вид битрейта : Переменный
Битрейт : 5489 Кбит/сек
Максимальный битрейт : 8000 Кбит/сек
Ширина : 720 пикселей
Высота : 576 пикселей
Соотношение сторон : 4:3
Частота кадров : 25,000 кадров/сек
Стандарт вещания : PAL
Цветовое пространство : YUV
Субдискретизация насыщенности : 4:2:0
Битовая глубина : 8 бит
Тип развёртки : Прогрессивная
Метод сжатия : С потерями
Бит/(Пиксели*Кадры) : 0.529
Временной код первого кадра : 00:22:50:20
Оригинал временного кода : Group of pictures header
GOP, открыто/закрыто : Открыто
Размер потока : 899 Мбайт (88%)
Аудио #1
Идентификатор : 189 (0xBD)-128 (0x80)
Формат : AC-3
Формат/Информация : Audio Coding 3
Расширение режима : CM (complete main)
Параметр Endianness формата : Big
Режим смешивания : DVD-Video
Продолжительность : 22 м.
Вид битрейта : Постоянный
Битрейт : 192 Кбит/сек
Каналы : 2 канала
Расположение каналов : Front: L R
Частота : 48,0 КГц
Частота кадров : 31,250 кадров/сек (1536 spf)
Метод сжатия : С потерями
Задержка видео : -480 мс.
Размер потока : 31,4 Мбайт (3%)
Аудио #2
Идентификатор : 189 (0xBD)-129 (0x81)
Формат : AC-3
Формат/Информация : Audio Coding 3
Расширение режима : CM (complete main)
Параметр Endianness формата : Big
Режим смешивания : DVD-Video
Продолжительность : 22 м.
Вид битрейта : Постоянный
Битрейт : 448 Кбит/сек
Каналы : 2 канала
Расположение каналов : Front: L R
Частота : 48,0 КГц
Частота кадров : 31,250 кадров/сек (1536 spf)
Метод сжатия : С потерями
Задержка видео : -608 мс.
Размер потока : 73,4 Мбайт (7%)

DVDInfo

Title: Das Schulgespenst DVD-5
Size: 3.89 Gb ( 4 082 644,00 KBytes ) - DVD-5
Enabled regions: 1, 2, 3, 4, 5, 6, 7, 8
VTS_01 :
Play Length: 01:21:11
Video: PAL 4:3 (720x576) VBR
Audio:
Russian, AC3, 2/0 (L,R) ch, 192 kbps, Delay 0 mSec
Deutsch, AC3, 2/0 (L,R) ch, 448 kbps, Delay 0 mSec
VTS_02 :
Play Length: 00:00:59
Video: PAL 4:3 (720x576) VBR
Audio:
Deutsch (Dolby AC3, 2 ch)
VTS_03 :
Play Length: 00:02:27
Video: PAL 16:9 (720x576) VBR, Auto Letterboxed
Audio:
Deutsch (Dolby AC3, 2 ch)
VTS_04 :
Play Length: 00:02:17
Video: PAL 4:3 (720x576) VBR
Audio:
Deutsch (Dolby AC3, 2 ch)

Скриншоты меню

Скриншоты

ВНИМАНИЕ ! Раздаю до пяти сидов потом ухожу с раздачи .
[Profile]  [PM] 
Display posts:    
Reply to topic

Current time is: 16-Dec 09:59

All times are UTC + 2



You cannot post new topics in this forum
You cannot reply to topics in this forum
You cannot edit your posts in this forum
You cannot delete your posts in this forum
You cannot vote in polls in this forum
You cannot attach files in this forum
You cannot download files in this forum