Лесной змей / Полынь: Дорога мёртвых / Wyrmwood: Road of the dead (Кия Роуч-Тернер / Kiah Roache-Turner) [2014, Австралия, ужасы, боевик, триллер, HDRip] VO (Дмитрий Есарев) + Original Eng

Reply to topic
 
Author
Message

Satyr ®

Gender: Unknown

Longevity: 10 years

Posts: 14651

Reputation: 54 [+] [-]

Satyr · Post 06-Feb-2017 09:25

[Quote] 

Лесной змей / Полынь: Дорога мёртвых / Wyrmwood: Road of the dead
Страна: Австралия
Жанр: ужасы, боевик, триллер
Год выпуска: 2014
Продолжительность: 01:38:17
Перевод: Одноголосый закадровый Дмитрий Есарев
Cубтитры: нет
Оригинальная аудиодорожка: Английский
Режиссер: Кия Роуч-Тернер / Kiah Roache-Turner
В ролях: Джей Галлахер, Бьянка Брэди, Леон Бурчилл, Люк МакКензи, Юр Кович, Кит Агиус, Катрин Террачини, Кэйн Томпсон, Бет Обри
Описание: Зомби заполонили улицы. Теперь невозможно жить как прежде. Передвигаться по городу и за его пределами опасно. Люди потеряли способность мыслить разумно. Все человеческое теперь им чуждо. Ими обладает лишь желание полакомиться человеческой плотью. Барри был механиком и зарабатывал деньги на пропитание своей семьи честным трудом. С пришествием ходячих умерших он потерял все. Теперь лишь желание выжить держит его на этом свете. Австралийские заросли кишат опасностью. Зомби крепко обосновались. По дороге к выживанию Барри знакомится с Чалкером. Мужчина еще один из выживших счастливчиков. Они объединяются в борьбе против хищника. Теперь на плотоядных монстров объявлена охота. Им не улизнуть от гнева живых...
Доп. информация: Рейтинг фильма : -- IMDB / 6,3
Сэмпл: http://multi-up.com/1139182
Качество видео: HDRip (Исходник Wyrmwood. Road of the Dead. (2014) BDRip 1080p.mkv)
Формат видео: AVI
Видео: XviD 73, 704x400, (16:9), 24,000 fps, 1595 Кбит/с, 0.23 bit/pixel
Аудио: Русский (АС3, 2 ch (Front: L R), 48,0 KHz, 192 Kbps)
Аудио 2: Английский (АС3, 2 ch (Front: L R), 48,0 KHz, 192 Kbps)

MediaInfo

Общее
Полное имя : F:\Видеофильмы\В и д е о\Лесной змей (ужасы, боевик, триллер 2014 год).avi
Формат : AVI
Формат/Информация : Audio Video Interleave
Размер файла : 1,37 Гбайт
Продолжительность : 1 ч. 38 м.
Общий поток : 1993 Кбит/сек
Программа кодирования : VirtualDubMod 1.5.10.3 | www.virtualdub-fr.org || (build 2550/release)
Библиотека кодирования : VirtualDubMod build 2550/release
Видео
Идентификатор : 0
Формат : MPEG-4 Visual
Профиль формата : Advanced Simple@L5
Параметр BVOP формата : 2
Параметр QPel формата : Нет
Параметр GMC формата : Без точки перехода
Параметр матрицы формата : Выборочная
Идентификатор кодека : XVID
Идентификатор кодека/Подсказка : XviD
Продолжительность : 1 ч. 38 м.
Битрейт : 1595 Кбит/сек
Ширина : 704 пикселя
Высота : 400 пикселей
Соотношение сторон : 16:9
Частота кадров : 24,000 кадра/сек
Цветовое пространство : YUV
Субдискретизация насыщенности : 4:2:0
Битовая глубина : 8 бит
Тип развёртки : Прогрессивная
Метод сжатия : С потерями
Бит/(Пиксели*Кадры) : 0.236
Размер потока : 1,10 Гбайт (80%)
Библиотека кодирования : XviD 73
Аудио #1
Идентификатор : 1
Формат : AC-3
Формат/Информация : Audio Coding 3
Расширение режима : CM (complete main)
Параметр Endianness формата : Big
Идентификатор кодека : 2000
Продолжительность : 1 ч. 38 м.
Вид битрейта : Постоянный
Битрейт : 192 Кбит/сек
Каналы : 2 канала
Расположение каналов : Front: L R
Частота : 48,0 КГц
Частота кадров : 31,250 кадров/сек (1536 spf)
Метод сжатия : С потерями
Размер потока : 135 Мбайт (10%)
Выравнивание : Разделение по промежуткам
Продолжительность промежутка : 42 мс. (1,00 видеокадр)
Время предзагрузки промежутка : 500 мс.
Аудио #2
Идентификатор : 2
Формат : AC-3
Формат/Информация : Audio Coding 3
Расширение режима : CM (complete main)
Параметр Endianness формата : Big
Идентификатор кодека : 2000
Продолжительность : 1 ч. 38 м.
Вид битрейта : Постоянный
Битрейт : 192 Кбит/сек
Каналы : 2 канала
Расположение каналов : Front: L R
Частота : 48,0 КГц
Частота кадров : 31,250 кадров/сек (1536 spf)
Метод сжатия : С потерями
Размер потока : 135 Мбайт (10%)
Выравнивание : Разделение по промежуткам
Продолжительность промежутка : 42 мс. (1,00 видеокадр)
Время предзагрузки промежутка : 500 мс.

Скриншот c названием фильма

Скриншоты

[Profile]  [PM] 
Display posts:    
Reply to topic

Current time is: 15-Dec 12:45

All times are UTC + 2



You cannot post new topics in this forum
You cannot reply to topics in this forum
You cannot edit your posts in this forum
You cannot delete your posts in this forum
You cannot vote in polls in this forum
You cannot attach files in this forum
You cannot download files in this forum