Восхождение пехотинца / Rise of the Footsoldier (Джулиан Джилби / Julian Jilba) [2007, Великобритания, боевик, драма, криминал, биография, BDRip] [Расширенная версия / Extended Version] AVO (Карповский)

Reply to topic
 
Author
Message

Advocat ®

Gender: Unknown

Longevity: 10 years

Posts: 2897

Reputation: 0 [+] [-]

Advocat · Post 06-Feb-2017 09:25

[Quote] 

Восхождение пехотинца / Rise of the Footsoldier
Расширенная версия / Extended Version
Страна: Великобритания
Студия: Carnaby Films, Hanover Films
Жанр: Боевик, драма, криминал, биография
Год выпуска: 2007
Продолжительность: 02:15:21
Перевод: Авторский (одноголосый закадровый) Антон Карповский
Cубтитры: нет
Оригинальная аудиодорожка: нет
Режиссер: Джулиан Джилби / Julian Jilba
В ролях: Риччи Харнетт, Терри Стоун, Крейг Фаирбрасс, Роланд Манукян, Фрэнк Харпер, Билли Мюррэй, Нил Мэскелл, Йен Вирго, Корали Роуз, Кирстон Вэрэйнг, Патрик Режис
Описание: Тяжелый фильм, изобилующий сценами насилия и обсценной лексикой в основе которого жизнь футбольного фаната Карлтона Лича, прошедшего весь сложный и жестокий путь от около-футбольного хулигана до полноценного английского мафиози. Всё начинается с футбола, когда болельщики Вест Хэма ездят по другим городам и вступают в уличные бои с фанатами других клубов. Выбивая зубы, раскраивая черепа, ломая руки, эти ребята попутно заняты поиском своего жизненного предназначения.
Дополнительная информация:
Автор релиза -
Заказ перевода у Антона Карповского (январь 2017) - ylnian
За сборку дороги спасибо rammzez
Источник для рипа - Blu-Ray (UK) - Rise.of.the.Footsoldier.2007.Extended.1080p.Blu-ray.AVC.DTS-HD.MA.5.1-VAiN
Описание - из рецензии Антона Карповского
Внимание! Много ненормативной лексики - как в оригинале!


Сэмпл: https://yadi.sk/i/fJE_ZA3x3CrP28
Качество видео: BDRip
Формат видео: AVI
Видео: XviD, 656x352 (1,85:1), 23.976 fps, 1080 kbps, 0.195 bit/pixel
Аудио: Русский AC3, 48000 Гц, 6ch, 448 kbps

MediaInfo

Общее
Полное имя : E:\Rise.of.the.Footsoldier.Extended.2007.BDRip.1400-ylnian.avi
Формат : AVI
Формат/Информация : Audio Video Interleave
Размер файла : 1,45 Гбайт
Продолжительность : 2 ч. 15 м.
Общий поток : 1537 Кбит/сек
Название фильма : Rise of the Footsoldier - Extended - 2007 - BDRip - ylnian
Программа кодирования : VirtualDubMod 1.5.10.2 (build 2540/release)
Библиотека кодирования : VirtualDubMod build 2540/release
Видео
Идентификатор : 0
Формат : MPEG-4 Visual
Профиль формата : Advanced Simple@L5
Параметр BVOP формата : 1
Параметр QPel формата : Нет
Параметр GMC формата : Без точки перехода
Параметр матрицы формата : Default (MPEG)
Идентификатор кодека : XVID
Идентификатор кодека/Подсказка : XviD
Продолжительность : 2 ч. 15 м.
Битрейт : 1080 Кбит/сек
Ширина : 656 пикселей
Высота : 352 пикселя
Соотношение сторон : 1,85:1
Частота кадров : 23,976 (24000/1001) кадра/сек
Цветовое пространство : YUV
Субдискретизация насыщенности : 4:2:0
Битовая глубина : 8 бит
Тип развёртки : Прогрессивная
Метод сжатия : С потерями
Бит/(Пиксели*Кадры) : 0.195
Размер потока : 1,02 Гбайт (70%)
Библиотека кодирования : XviD 67
Аудио
Идентификатор : 1
Формат : AC-3
Формат/Информация : Audio Coding 3
Расширение режима : CM (complete main)
Параметр Endianness формата : Big
Идентификатор кодека : 2000
Продолжительность : 2 ч. 15 м.
Вид битрейта : Постоянный
Битрейт : 448 Кбит/сек
Каналы : 6 каналов
Расположение каналов : Front: L C R, Side: L R, LFE
Частота : 48,0 КГц
Частота кадров : 31,250 кадров/сек (1536 spf)
Метод сжатия : С потерями
Размер потока : 434 Мбайт (29%)
Выравнивание : Разделение по промежуткам
Продолжительность промежутка : 42 мс. (1,00 видеокадр)
Время предзагрузки промежутка : 500 мс.
Заголовок : RUS - AVO - Karpovsky

Интересно

- Отличие расширенной версии от театральной - http://www.schnittberichte.com/schnittbericht.php?ID=441059
- Фильм не только реалистичен, но основан на подлинных событиях, имевших место в относительно недавнее время в графстве Эссекс.

Скриншот c названием фильма

Скриншоты

[Profile]  [PM] 
Display posts:    
Reply to topic

Current time is: 16-Dec 09:58

All times are UTC + 2



You cannot post new topics in this forum
You cannot reply to topics in this forum
You cannot edit your posts in this forum
You cannot delete your posts in this forum
You cannot vote in polls in this forum
You cannot attach files in this forum
You cannot download files in this forum