Пункт Назначения 3 / Final Destination 3 (Джеймс Вонг / James Wong) [2006, США, Канада, Германия, ужасы, триллер, BDRip-AVC] Dub + MVO + Original Eng + Sub (Rus, Eng)

Reply to topic
 
Author
Message

Advocat ®

Gender: Unknown

Longevity: 10 years

Posts: 2909

Reputation: 0 [+] [-]

Advocat · Post 06-Feb-2017 09:25

[Quote] 

Пункт Назначения 3 / Final Destination 3- Страна: США, Канада, Германия
Жанр: ужасы, триллер
Год выпуска: 2006
Продолжительность: 01:32:50
Перевод 1: Профессиональный (дублированный)
Перевод 2: Профессиональный (многоголосый закадровый) Киномания
Cубтитры: русские, английские
Оригинальная аудиодорожка: английский
Режиссер: Джеймс Вонг / James Wong
В ролях: Мэри Элизабет Уинстэд, Райан Мерриман, Крис Лемке, Алекс Джонсон, Сэм Истон, Джесси Мосс, Джина Холден, Тексас Бэттл, Челан Симмонс, Кристал Лоу
Описание: Главная героиня фильма — старшеклассница Венди Кристенсен, у которой однажды возникло предчувствие, что она и ее друзья станут жертвами несчастного случая, который произойдет на «американских горках».
Когда же самые страшные опасения Венди подтверждаются, то те, кто сумел все-таки обмануть смерть и выжить, оказываются вынужденными расплачиваться за то, что изменили свою судьбу…
Сэмпл: http://sendfile.su/1305599

Качество видео: BDRip-AVC (Пункт Назначения 3 2006 Blu-ray Disc 1080p [CEE])
Формат видео: MKV
Видео: x264, 1052x446 (2.35:1) 23,976 fps, ~2025 kbps, 0,180 bit/pixel
Аудио 1: 48 kHz, AC3 Dolby Digital, 3/2 (L,C,R,l,r) + LFE ch, ~448 kbps | Дубляж, Blu-ray CEE
Аудио 2: 48 kHz, AC3 Dolby Digital, 3/2 (L,C,R,l,r) + LFE ch, ~448 kbps | Киномания
Аудио 3: 48 kHz, AC3 Dolby Digital, 3/2 (L,C,R,l,r) + LFE ch, ~448 kbps | Английский
Формат субтитров: softsub (SRT)

MediaInfo

General
Unique ID : 177174483773064299107591437015025604397 (0x854A907A6BA9C9F2A547B72A674A572D)
Format : Matroska
Format version : Version 4 / Version 2
File size : 2.19 GiB
Duration : 1h 32mn
Overall bit rate : 3 370 Kbps
Encoded date : UTC 2017-02-04 14:40:18
Writing application : mkvmerge v9.8.0 ('Kuglblids') 64bit
Writing library : libebml v1.3.4 + libmatroska v1.4.5
Cover : Yes
Attachments : cover.jpg / xlog.txt
Video #1
ID : 1
Format : AVC
Format/Info : Advanced Video Codec
Format profile : High@L4.1
Format settings, CABAC : Yes
Format settings, ReFrames : 10 frames
Codec ID : V_MPEG4/ISO/AVC
Duration : 1h 32mn
Bit rate : 2 025 Kbps
Width : 1 052 pixels
Height : 446 pixels
Display aspect ratio : 2.35:1
Frame rate mode : Constant
Frame rate : 23.976 (24000/1001) fps
Color space : YUV
Chroma subsampling : 4:2:0
Bit depth : 8 bits
Scan type : Progressive
Bits/(Pixel*Frame) : 0.180
Stream size : 1.31 GiB (60%)
Writing library : x264 core 148 r2744 b97ae06
Encoding settings : cabac=1 / ref=10 / deblock=1:-3:-2 / analyse=0x3:0x133 / me=umh / subme=10 / psy=1 / psy_rd=1.00:0.00 / mixed_ref=1 / me_range=32 / chroma_me=1 / trellis=2 / 8x8dct=1 / cqm=0 / deadzone=21,11 / fast_pskip=1 / chroma_qp_offset=-2 / threads=6 / lookahead_threads=1 / sliced_threads=0 / nr=0 / decimate=1 / interlaced=0 / bluray_compat=0 / constrained_intra=0 / bframes=13 / b_pyramid=2 / b_adapt=2 / b_bias=0 / direct=1 / weightb=1 / open_gop=0 / weightp=2 / keyint=250 / keyint_min=23 / scenecut=40 / intra_refresh=0 / rc_lookahead=60 / rc=2pass / mbtree=1 / bitrate=2025 / ratetol=1.0 / qcomp=0.60 / qpmin=0 / qpmax=69 / qpstep=4 / cplxblur=20.0 / qblur=0.5 / ip_ratio=1.40 / aq=3:1.00
Language : English
Default : Yes
Forced : No
Audio #2
ID : 2
Format : AC-3
Format/Info : Audio Coding 3
Mode extension : CM (complete main)
Format settings, Endianness : Big
Codec ID : A_AC3
Duration : 1h 32mn
Bit rate mode : Constant
Bit rate : 448 Kbps
Channel(s) : 6 channels
Channel positions : Front: L C R, Side: L R, LFE
Sampling rate : 48.0 KHz
Frame rate : 31.250 fps (1536 spf)
Compression mode : Lossy
Stream size : 298 MiB (13%)
Language : Russian
Default : Yes
Forced : No
Audio #3
ID : 3
Format : AC-3
Format/Info : Audio Coding 3
Mode extension : CM (complete main)
Format settings, Endianness : Big
Codec ID : A_AC3
Duration : 1h 32mn
Bit rate mode : Constant
Bit rate : 448 Kbps
Channel(s) : 6 channels
Channel positions : Front: L C R, Side: L R, LFE
Sampling rate : 48.0 KHz
Frame rate : 31.250 fps (1536 spf)
Compression mode : Lossy
Delay relative to video : 1s 772ms
Stream size : 297 MiB (13%)
Title : Киномания
Language : Russian
Default : No
Forced : No
Audio #4
ID : 4
Format : AC-3
Format/Info : Audio Coding 3
Mode extension : CM (complete main)
Format settings, Endianness : Big
Codec ID : A_AC3
Duration : 1h 32mn
Bit rate mode : Constant
Bit rate : 448 Kbps
Channel(s) : 6 channels
Channel positions : Front: L C R, Side: L R, LFE
Sampling rate : 48.0 KHz
Frame rate : 31.250 fps (1536 spf)
Compression mode : Lossy
Stream size : 298 MiB (13%)
Language : English
Default : No
Forced : No
Text #5
ID : 5
Format : UTF-8
Codec ID : S_TEXT/UTF8
Codec ID/Info : UTF-8 Plain Text
Duration : 1h 32mn
Bit rate : 81 bps
Count of elements : 943
Stream size : 55.3 KiB (0%)
Title : Blu-ray CEE
Language : Russian
Default : No
Forced : No
Text #6
ID : 6
Format : UTF-8
Codec ID : S_TEXT/UTF8
Codec ID/Info : UTF-8 Plain Text
Duration : 1h 26mn
Bit rate : 59 bps
Count of elements : 1371
Stream size : 37.9 KiB (0%)
Language : English
Default : No
Forced : No

лог

raw [info]: 1052x446p 1:1 @ 24000/1001 fps (cfr)
x264 [info]: using SAR=1/1
x264 [info]: using cpu capabilities: MMX2 SSE2Fast SSSE3 SSE4.2 AVX XOP FMA4 FMA3 LZCNT BMI1
x264 [info]: profile High, level 4.1
x264 [info]: frame I:1226 Avg QP:16.69 size: 68257
x264 [info]: frame P:31904 Avg QP:20.72 size: 20126
x264 [info]: frame B:100433 Avg QP:23.14 size: 6803
x264 [info]: consecutive B-frames: 4.2% 4.3% 11.0% 17.4% 16.4% 33.3% 5.2% 2.1% 1.4% 1.1% 1.1% 1.1% 0.7% 0.7%
x264 [info]: mb I I16..4: 7.5% 74.5% 18.0%
x264 [info]: mb P I16..4: 2.3% 13.2% 2.1% P16..4: 39.7% 18.7% 13.4% 0.5% 0.1% skip:10.0%
x264 [info]: mb B I16..4: 0.1% 1.1% 0.2% B16..8: 42.8% 10.0% 2.7% direct: 4.7% skip:38.5% L0:46.7% L1:44.5% BI: 8.8%
x264 [info]: 8x8 transform intra:75.7% inter:68.0%
x264 [info]: coded y,uvDC,uvAC intra: 79.7% 74.2% 40.3% inter: 23.7% 17.1% 1.5%
x264 [info]: i16 v,h,dc,p: 40% 14% 7% 39%
x264 [info]: i8 v,h,dc,ddl,ddr,vr,hd,vl,hu: 9% 7% 7% 10% 15% 15% 13% 12% 11%
x264 [info]: i4 v,h,dc,ddl,ddr,vr,hd,vl,hu: 10% 6% 3% 11% 17% 16% 14% 12% 12%
x264 [info]: i8c dc,h,v,p: 35% 25% 21% 19%
x264 [info]: Weighted P-Frames: Y:7.0% UV:3.4%
x264 [info]: ref P L0: 48.0% 12.3% 16.2% 6.3% 5.2% 3.6% 3.2% 1.8% 1.7% 1.5% 0.2% 0.0%
x264 [info]: ref B L0: 73.1% 11.7% 6.1% 3.1% 2.2% 1.7% 1.3% 0.6% 0.2%
x264 [info]: ref B L1: 94.0% 6.0%
x264 [info]: kb/s:2023.45
x264 [total]: encoded 133563 frames, 9.71 fps, 2023.45 kb/s

Скриншоты


Пункт назначения
Пункт назначения 2
Пункт назначения 4
[Profile]  [PM] 
Display posts:    
Reply to topic

Current time is: 25-Jan 16:41

All times are UTC + 2



You cannot post new topics in this forum
You cannot reply to topics in this forum
You cannot edit your posts in this forum
You cannot delete your posts in this forum
You cannot vote in polls in this forum
You cannot attach files in this forum
You cannot download files in this forum